Кто я? / Who am i? / Wo shi shei (1998) HDTVRip 1080p

 
Автор Сообщение

sergej644 ®

Пол:

Стаж: 4 года 11 месяцев

Сообщений: 6046

Откуда: Soviet Union



Награды: Нет

Торрент-статистика

Создавать темы 31-Окт-2014 18:50

[Цитировать]

--Кто я? / Who am i? / Wo shi shei (1998)
Информация о фильме
Название: Кто я?
Оригинальное название: Wo shi shei
Год выхода: 1998
Страна: Гонконг
Выпущено: Golden Harvest Company Ltd
Жанр: Боевик, триллер, комедия, приключения
Продолжительность: 01:47:57
Перевод: Профессиональный (Дублированный)
Режиссер: Джеки Чан, Бенни Чан
В ролях: Джеки Чан, Мишель Ферре, Мираи Ямамото, Рон Смержак, Эд Нелсон, Том Ромперт, Глори Саймон-О фильме: Группа спецназа, работающая под прикрытием ЦРУ, направляется на задание по вывозу энергетического тела, которое было найдено учеными в африканских джунглях. По окончании операции всю группу пытаются ликвидировать. Один из солдат, выживший после авиакатастрофы, но потерявший память, пытается бороться со своими мыслями и вспомнить, кто он. На пути к истине ему мешают, и он не знает, кому можно верить...
-Файл
Кодек: x264
Формат: MKV
Качество: HDTVRip 1080p (Исходник: HDTV 1080i, MPEG-2, 29.97 fps, ~12.8 Mb/s, 0.205 Bits/Pixel)
Видео: AVC (High@L4.1) 1904x1056 (16:9), 23.976 fps, 9842 kbps, 0.204 Bits/Pixel
Аудио: DD (AC-3) 5.1 ch, 448 kbps--

MI

General
Unique ID : 196694649007036747306266651606896903966 (0x93FA02EDE2976EEF9615D8A53248871E)
Format : Matroska
Format version : Version 2
File size : 7.76 GiB
Duration : 1h 47mn
Overall bit rate : 10.3 Mbps
Encoded date : UTC 2013-01-21 05:24:01
Writing application : mkvmerge v5.8.0 ('No Sleep / Pillow') built on Sep 2 2012 15:37:04
Writing library : libebml v1.2.3 + libmatroska v1.3.0
Video
ID : 1
Format : AVC
Format/Info : Advanced Video Codec
Format profile : High@L4.1
Format settings, CABAC : Yes
Format settings, ReFrames : 4 frames
Codec ID : V_MPEG4/ISO/AVC
Duration : 1h 47mn
Bit rate : 9 842 Kbps
Width : 1 904 pixels
Height : 1 056 pixels
Display aspect ratio : 16:9
Frame rate mode : Constant
Frame rate : 23.976 fps
Color space : YUV
Chroma subsampling : 4:2:0
Bit depth : 8 bits
Scan type : Progressive
Bits/(Pixel*Frame) : 0.204
Stream size : 7.27 GiB (94%)
Writing library : x264 core 129 r2245 bc13772
Encoding settings : cabac=1 / ref=4 / deblock=1:-1:-1 / analyse=0x3:0x113 / me=umh / subme=10 / psy=1 / psy_rd=1.00:0.00 / mixed_ref=1 / me_range=32 / chroma_me=1 / trellis=2 / 8x8dct=1 / cqm=0 / deadzone=21,11 / fast_pskip=0 / chroma_qp_offset=-2 / threads=12 / lookahead_threads=2 / sliced_threads=0 / nr=0 / decimate=0 / interlaced=0 / bluray_compat=0 / constrained_intra=0 / bframes=5 / b_pyramid=2 / b_adapt=2 / b_bias=0 / direct=3 / weightb=1 / open_gop=0 / weightp=2 / keyint=240 / keyint_min=23 / scenecut=40 / intra_refresh=0 / rc=2pass / mbtree=0 / bitrate=9842 / ratetol=1.0 / qcomp=0.60 / qpmin=0 / qpmax=69 / qpstep=4 / cplxblur=20.0 / qblur=0.5 / ip_ratio=1.40 / pb_ratio=1.30 / aq=1:0.80
Default : Yes
Forced : No
Audio
ID : 2
Format : AC-3
Format/Info : Audio Coding 3
Mode extension : CM (complete main)
Format settings, Endianness : Big
Codec ID : A_AC3
Duration : 1h 47mn
Bit rate mode : Constant
Bit rate : 448 Kbps
Channel(s) : 6 channels
Channel positions : Front: L C R, Side: L R, LFE
Sampling rate : 48.0 KHz
Bit depth : 16 bits
Compression mode : Lossy
Stream size : 346 MiB (4%)
Default : Yes
Forced : No
-Скриншоты
-
[Профиль] [ЛС]
Кто просматривает тему:

Показать сообщения:    

Текущее время: Сегодня 10:16

Часовой пояс: GMT



Вы не можете начинать темы
Вы не можете отвечать на сообщения
Вы не можете редактировать свои сообщения
Вы не можете удалять свои сообщения
Вы не можете голосовать в опросах
Вы не можете прикреплять файлы к сообщениям
Вы не можете скачивать файлы