Кто этот человек? / Kim jest ten czlowiek? (1984) DVDRip от New-Team | D

 
Автор Сообщение

sergej644 ®

Пол:

Стаж: 4 года 11 месяцев

Сообщений: 6035

Откуда: Soviet Union



Награды: Нет

Торрент-статистика

Создавать темы 25-Ноя-2014 16:11

[Цитировать]

Год выпуска: 1984
Страна: Польша
Студия: Студия «Иллюзион»
Перевод: Профессиональный (полное дублирование)
Субтитры: нет
Жанр: драма, приключения, военный
Продолжительность: 01:26:02
Режиссер: Эва Петельска, Чеслав Петельский / Ewa Petelska, Czeslaw Petelscy
В ролях: Хенрик Талар, Эва Шикульска, Венчислав Глинский, Кшиштоф Хамец, Януш Клосинский...
Дублировали: Юрий Демич, Игорь Ефимов, Александр Демьяненко, Павел Кашлаков, Эрнст Романов...
Описание: Фильм повествуют о сложной и бескомпромиссной борьбе германской (Абвер) и польской (2-ой отдел Главного штаба) разведывательных структур накануне Второй мировой войны. В эту борьбу оказывается втянутым и главный герой — капитан Адам Ивинский...- -Исходник: DVD5 R5
Тип релиза: DVDRip
Контейнер: AVI
Видео: 688x512 (4:3), 25 fps, XviD ~ 2218 kbps avg, 0.252 bit/pixel
Аудио: 48 kHz, AC3, 2 ch, 192.00 kbps
Раздача от:

MediaInfo

Общее
Полное имя : Kto.etot.chelovek.1984.D.DVDRip_by_AVP Studio.avi
Формат : AVI
Формат/Информация : Audio Video Interleave
Размер файла : 1,45 Гбайт
Продолжительность : 1 ч. 26 м.
Общий поток : 2420 Кбит/сек
Программа кодирования : VirtualDubMod 1.5.10.3 | www.virtualdub-fr.org || (build 2550/release)
Библиотека кодирования : VirtualDubMod build 2550/release
Видео
Идентификатор : 0
Формат : MPEG-4 Visual
Профиль формата : Advanced Simple@L5
Параметр BVOP формата : 1
Параметр QPel формата : Нет
Параметр GMC формата : Без точки перехода
Параметр матрицы формата : Выборочная
Идентификатор кодека : XVID
Идентификатор кодека/Подсказка : XviD
Продолжительность : 1 ч. 26 м.
Битрейт : 2218 Кбит/сек
Ширина : 688 пикселей
Высота : 512 пикселей
Соотношение сторон : 4:3
Частота кадров : 25,000 кадров/сек
Цветовое пространство : YUV
Субдискретизация насыщенности : 4:2:0
Битовая глубина : 8 бит
Тип развёртки : Прогрессивная
Метод сжатия : С потерями
Бит/(Пиксели*Кадры) : 0.252
Размер потока : 1,33 Гбайт (92%)
Библиотека кодирования : XviD 65
Аудио
Идентификатор : 1
Формат : AC-3
Формат/Информация : Audio Coding 3
Расширение режима : CM (complete main)
Идентификатор кодека : 2000
Продолжительность : 1 ч. 26 м.
Вид битрейта : Постоянный
Битрейт : 192 Кбит/сек
Каналы : 2 канала
Расположение каналов : Front: L R
Частота : 48,0 КГц
Битовая глубина : 16 бит
Метод сжатия : С потерями
Размер потока : 118 Мбайт (8%)
Выравнивание : Разделение по промежуткам
Продолжительность промежутка : 40 мс. (1,00 видеокадр)
Время предзагрузки промежутка : 500 мс

Скриншоты

[Профиль] [ЛС]

Создавать темы 06-Авг-2015 22:56 (спустя 8 месяцев 11 дней)

Топик был перенесен из форума Фильмы до 2014 года в форум Фильмы до 2012 года
sergej644
 
Кто просматривает тему:

Показать сообщения:    

Текущее время: Сегодня 09:52

Часовой пояс: GMT



Вы не можете начинать темы
Вы не можете отвечать на сообщения
Вы не можете редактировать свои сообщения
Вы не можете удалять свои сообщения
Вы не можете голосовать в опросах
Вы не можете прикреплять файлы к сообщениям
Вы не можете скачивать файлы