Кто убил миссис Де Ропп? / Who Killed Mrs De Ropp? (Сэм Хобкинсон / Sam Hobkinson) [2007, Великобритания, драма, экранизация, SATRip] Sub Rus + Original Eng

 
Автор Сообщение

painkiller ®

Стаж: 2 года 3 месяца

Сообщений: 582



Награды: Нет

Торрент-статистика

Создавать темы 14-Авг-2014 13:01

[Цитировать]

Кто убил миссис Де Ропп? / Who Killed Mrs De Ropp?
Страна: Великобритания
Жанр: драма, экранизация
Год выпуска: 2007
Продолжительность: 0:57:40
Перевод: Субтитры (Glanzelius)
Cубтитры: русские
Оригинальная аудиодорожка: английский
Режиссер: Сэм Хобкинсон / Sam Hobkinson
В ролях: Бен Дэниелс, Джемма Джонс, Томас Бирн, Билл Милнер, Сэмюэл Хонивуд, Джулия Джойс, Мадлен Уильямс, Эндрю Бирн, Дженни Ливси
Описание: Экранизация трех рассказов Саки (Гектора Хью Манро)
"Рассказчик": В купе поезда едут трое детей, мальчик и две девочки, их тетушка и холостой джентльмен. Дети шумят, бесятся и всячески достают взрослых. У тетушки никак не получается утихомирить сорванцов, и тогда джентльмен начинает рассказывать им сказочку об одной прилежной девочке и сером волке.
"Чулан": Мальчик Николас был наказан за проступок, он не должен был вместе со всеми отправиться на пляж в Джегборо. Но Николасу удалось обратить наказание себе во благо, и он неплохо провел время!
"Средни Ваштар": Когда Конрадину было десять лет, доктор сказал, что мальчик не проживет больше пяти лет. Миссис Де Ропп, приходившаяся Конрадину двоюродной сестрой, была еще и его опекуншей, не давала ему спокойной жизни, ограничивала во всем. Единственное существо, на кого распространялась любовь мальчика, была курица в сарае. Узнав о том, что Корадин постоянно посещает сарай, миссис Де Ропп приказала увезти курицу, но мальчик все равно продолжал наведываться туда. Тогда опекунша отправилась выяснять, что Конрадин прячет в клетке в сарае.

Доп. информация:
Релиз кинопортала BLIZZARDKID
Качество видео: SATRip
Формат видео: AVI
Видео: 624x352 (1.77:1), 25 fps, XviD build 46 ~953 kbps avg, 0.17 bit/pixel
Аудио: 48 kHz, MPEG Layer 3, 2 ch, ~128.00 kbps avg
Формат субтитров: softsub (SRT)

MediaInfo

GeneralComplete name : ...\Who Killed Mrs De Ropp.aviFormat : AVIFormat/Info : Audio Video InterleaveFile size : 450 MiBDuration : 57mn 40sOverall bit rate : 1 091 Kbps
VideoID : 0Format : MPEG-4 VisualFormat profile : Advanced Simple@L5Format settings, BVOP : 1Format settings, QPel : NoFormat settings, GMC : No warppointsFormat settings, Matrix : Default (H.263)Codec ID : XVIDCodec ID/Hint : XviDDuration : 57mn 40sBit rate : 953 KbpsWidth : 624 pixelsHeight : 352 pixelsDisplay aspect ratio : 16:9Frame rate : 25.000 fpsColor space : YUVChroma subsampling : 4:2:0Bit depth : 8 bitsScan type : ProgressiveCompression mode : LossyBits/(Pixel*Frame) : 0.174Stream size : 393 MiB (87%)Writing library : XviD 1.1.2 (UTC 2006-11-01)
AudioID : 1Format : MPEG AudioFormat version : Version 1Format profile : Layer 3Mode : Joint stereoMode extension : MS StereoCodec ID : 55Codec ID/Hint : MP3Duration : 57mn 40sBit rate mode : ConstantBit rate : 128 KbpsChannel(s) : 2 channelsSampling rate : 48.0 KHzCompression mode : LossyStream size : 52.8 MiB (12%)Alignment : Aligned on interleavesInterleave, duration : 40 ms (1.00 video frame)Interleave, preload duration : 504 msWriting library : LAME3.97ЄЄЄЄЄЄЄЄЄЄЄЄ
Фрагмент субтитров">

Скриншоты Фрагмент субтитров


4100:04:31,976 --> 00:04:33,912Взгляните-ка на тех коров!
4200:04:38,500 --> 00:04:42,082Почти на каждом поле вдоль железнойдороги паслись коровы или быки.
4300:04:42,966 --> 00:04:46,869Но она произнесла это так, будто хотелапривлечь внимание к некой диковинке.
4400:04:48,591 --> 00:04:51,320Почему трава на другом поле лучше?
4500:04:51,671 --> 00:04:53,104- настаивал Сирил.
4600:04:58,180 --> 00:05:01,947Выражение недовольства на лице холостякаусилилось до гримасы отвращения.
4700:05:03,212 --> 00:05:05,758Это был суровый, непривлекательноговида мужчина.
4800:05:06,733 --> 00:05:10,181Она была совершенно не способна принятькакое-нибудь удовлетворительное решение
4900:05:10,301 --> 00:05:12,313касательно травы на другом поле.
5000:05:13,015 --> 00:05:14,921По дороге в Мандалей.
5100:05:19,950 --> 00:05:21,795По дороге в Мандалей.
5200:05:22,237 --> 00:05:24,678Младшая из девочек разрядила обстановку,
5300:05:24,798 --> 00:05:27,908начав читать нараспев"По дороге в Мандалей".
5400:05:44,081 --> 00:05:46,154Она знала лишь первую строку,
5500:05:47,892 --> 00:05:51,688но это свое скудное знаниеиспользовала сполна.
5600:06:22,985 --> 00:06:24,479Холостяку казалось,
5700:06:24,813 --> 00:06:27,938что она побилась с кем-то об заклад,что сможет повторить
5800:06:28,274 --> 00:06:30,301эту строку вслух 2000 раз без остановки.
5900:06:31,094 --> 00:06:32,955Кем бы он ни был,этот заключивший с ней пари,
6000:06:33,199 --> 00:06:35,058он был близок к проигрышу.
[Профиль] [ЛС]

Создавать темы 06-Авг-2015 23:14 (спустя 11 месяцев 23 дня)

Топик был перенесен из форума Фильмы до 2014 года в форум Фильмы до 2012 года
sergej644
 
Кто просматривает тему:

Показать сообщения:    

Текущее время: Сегодня 10:08

Часовой пояс: GMT



Вы не можете начинать темы
Вы не можете отвечать на сообщения
Вы не можете редактировать свои сообщения
Вы не можете удалять свои сообщения
Вы не можете голосовать в опросах
Вы не можете прикреплять файлы к сообщениям
Вы не можете скачивать файлы