Кто ты? [01-16 из 16] (2018) WEB-DLRip

 
Author Message

BOSS ®

Gender:

Longevity: 4 years 10 months

Posts: 14162

Location: ODESSA



: 22 ()

За внесенный вклад в развитие сайта (1) Top Seeder 3 (1) Top Keeper 4 (1)
Торрент-статистика

Post 12-Aug-2019 17:25

[Quote]

Год выпуска: 2018
Жанр: Детектив
Выпущено: Россия, Украина, Кинокомпания «Упс»
Режиссер: Анатолий Матешко
В ролях: Екатерина Кузнецова, Антон Батырев, Ярослав Гуревич, Игорь Пазыч, Мирослав Павличенко, Анастасия Матешко, Олег Примогенов, Ренат Сеттаров
О фильме: История о психотерапевте Инге Штефан, перешедшей в криминальный профайлинг после странной гибели нескольких ее пациентов, а ранее – исчезновения жениха. Параллельно со своим расследованием Инга работает с убойным отделом Главка полиции. В ходе развития сюжета героиня узнает, что за ней много лет следит маньяк, виновный не только в смертях ее пациентов и жениха...

Качество: WEB-DLRip
Видео: XviD build 73, 720x400 (16:9), 25.000 fps, ~ 1570 Kbps (~ 0.217 bit/pixel)
Аудио: 48.0 kHz, AC3, 2/0 ch, 192 kbps
Продолжительность: 16 х ~ 00:44:00
Перевод: Не требуется [Русский]
Cубтитры: нет

Скриншоты

MediaInfo

General
Complete name : D:RazdachiKto.Ty.2018.WEB-DLRip.GeneralFilmKto.Ty.e01.avi
Format : AVI
Format/Info : Audio Video Interleave
File size : 557 MiB
Duration : 44 min 2 s
Overall bit rate : 1 768 kb/s
Writing application : VirtualDubMod 1.5.10.3 | www.virtualdub-fr.org || (build 2550/release)
Writing library : VirtualDubMod build 2550/release
Video
ID : 0
Format : MPEG-4 Visual
Format profile : Advanced Simple@L5
Format settings : BVOP1 / Custom Matrix
Format settings, BVOP : 1
Format settings, QPel : No
Format settings, GMC : No warppoints
Format settings, Matrix : Custom
Codec ID : XVID
Codec ID/Hint : XviD
Duration : 44 min 2 s
Bit rate : 1 566 kb/s
Width : 720 pixels
Height : 400 pixels
Display aspect ratio : 16:9
Frame rate : 25.000 FPS
Color space : YUV
Chroma subsampling : 4:2:0
Bit depth : 8 bits
Scan type : Progressive
Compression mode : Lossy
Bits/(Pixel*Frame) : 0.217
Stream size : 493 MiB (89%)
Writing library : XviD 73
Audio
ID : 1
Format : AC-3
Format/Info : Audio Coding 3
Commercial name : Dolby Digital
Codec ID : 2000
Duration : 44 min 2 s
Bit rate mode : Constant
Bit rate : 192 kb/s
Channel(s) : 2 channels
Channel layout : L R
Sampling rate : 48.0 kHz
Frame rate : 31.250 FPS (1536 SPF)
Bit depth : 16 bits
Compression mode : Lossy
Stream size : 60.5 MiB (11%)
Alignment : Split accross interleaves
Interleave, duration : 40 ms (1.00 video frame)
Interleave, preload duratio : 500 ms
Service kind : Complete Main
[Profile] [PM]
Кто просматривает тему:

Display posts from previous:    

The time now is: Today 15:12

All times are GMT



You cannot post new topics in this forum
You cannot reply to topics in this forum
You cannot edit your posts in this forum
You cannot delete your posts in this forum
You cannot vote in polls in this forum
You cannot attach files in this forum
You cannot download files in this forum