Кто там / Knock Knock (2015) HDRip | L2

 
Автор Сообщение

BOSS ®

Пол:

Стаж: 2 года 1 месяц

Сообщений: 3738

Откуда: ODESSA



Награды: 20 (Подробнее)

Mega Releaser 1 (Количество: 1) Top Seeder 5 (Количество: 1) Top Releaser 3 (Количество: 1)
Торрент-статистика

Создавать темы 17-Окт-2015 16:29

[Цитировать]

Информация о фильме
Название: Кто там?
Оригинальное название: Knock Knock
Год выпуска: 2015
Жанр: Триллер, ужасы
Режиссер: Элай Рот
В ролях: Киану Ривз, Лоренца Иззо, Ана де Армас, Игнасия Алламанд, Аарон Барнс, Коллин Кэмп
О фильме: Отправив семью за город, архитектор Эван остается на выходных дома один доделывать срочный проект. К нему стучатся две милые молодые девушки лет двадцати, насквозь промокшие и заблудившиеся. Эван не мог предположить, что протянутая рука помощи обернется для него чередой изощренных издевательств, изысканных пыток и медленного садистского уничтожения семьи…


Выпущено: Чили, США
Продолжительность: 01:39:47
Озвучивание: Любительское (одноголосое) [xixidok] по субтитрам Enigma
Файл
Формат: AVI (XviD)
Качество: HDRip
Видео: 911 kb/s, 720x304
Аудио: AC3, 128 kb/s (2 ch)
Размер: 745 MB
Скачать: Сэмпл-

Media Info

General
Complete name : Xt0.TaM.2015.L2.HDRip.745MB.avi
Format : AVI
Format/Info : Audio Video Interleave
File size : 745 MiB
Duration : 1h 39mn
Overall bit rate : 1 049 Kbps
Writing application : VirtualDubMod 1.5.10.3 | www.virtualdub-fr.org || (build 2550/release)
Writing library : VirtualDubMod build 2550/release
Video
ID : 0
Format : MPEG-4 Visual
Format profile : Advanced Simple@L5
Format settings, BVOP : 2
Format settings, QPel : No
Format settings, GMC : No warppoints
Format settings, Matrix : Default (MPEG)
Codec ID : XVID
Codec ID/Hint : XviD
Duration : 1h 39mn
Bit rate : 911 Kbps
Width : 720 pixels
Height : 304 pixels
Display aspect ratio : 2.35:1
Frame rate : 23.976 fps
Color space : YUV
Chroma subsampling : 4:2:0
Bit depth : 8 bits
Scan type : Progressive
Compression mode : Lossy
Bits/(Pixel*Frame) : 0.174
Stream size : 647 MiB (87%)
Writing library : XviD 1.2.1 (UTC 2008-12-04)
Audio
ID : 1
Format : AC-3
Format/Info : Audio Coding 3
Mode extension : CM (complete main)
Format settings, Endianness : Big
Codec ID : 2000
Duration : 1h 39mn
Bit rate mode : Constant
Bit rate : 128 Kbps
Channel(s) : 2 channels
Channel positions : Front: L R
Sampling rate : 48.0 KHz
Compression mode : Lossy
Stream size : 90.9 MiB (12%)
Alignment : Split accross interleaves
Interleave, duration : 42 ms (1.00 video frame)
Interleave, preload duration : 500 ms
-

Скриншоты | повтор:

--
[Профиль] [ЛС]
Кто просматривает тему:

Показать сообщения:    

Текущее время: Сегодня 22:21

Часовой пояс: GMT



Вы не можете начинать темы
Вы не можете отвечать на сообщения
Вы не можете редактировать свои сообщения
Вы не можете удалять свои сообщения
Вы не можете голосовать в опросах
Вы не можете прикреплять файлы к сообщениям
Вы не можете скачивать файлы