Кто там / Knock Knock (Элай Рот / Eli Roth) [2015, США, Чили, триллер, ужасы, WEB-DLRip] VO

 
Автор Сообщение

TorrentFilm ®

Пол:

Стаж: 2 года

Сообщений: 7741



Награды: Нет

Торрент-статистика

Создавать темы 17-Окт-2015 10:14

[Цитировать]

Кто там / Knock KnockСтрана: США, Чили
Жанр: триллер, ужасы
Год выпуска: 2015
Продолжительность: 01:39:47
Перевод: Одноголосый (закадровый) Хихидок, по переводу Enigma (любая реклама и ссылки отсутствуют)
Оригинальная аудиодорожка: нет
Субтитры: нет-Режиссер: Элай Рот / Eli Roth-В ролях: Киану Ривз, Лоренца Иззо, Ана де Армас, Коллин Кэмп, Игнасия Алламанд, Аарон Барнс
--Архитектор Эван остается на выходных один дома, чтобы закончить проект. За окном бушует непогода, а у двери слышится стук...-
-
Сэмпл: http://sendfile.su/1163237
Качество видео: WEB-DLRip
Формат видео: AVI
Видео: XviD (1.2.1) 890kbps 720x304 23.976fps
Аудио: MP3 128kbps 2ch 16bit 44100khz

MediaInfo

MediaInfoLib - v0.7.62
General
Complete name : E:\Контарик\Downloads\Мои раздачи\Кто там (Knock Knock). 2015г. WEB-DLRip. - kontarik81.avi
Format : AVI
Format/Info : Audio Video Interleave
File size : 733 MiB
Duration : 1h 39mn
Overall bit rate : 1 027 Kbps
Writing application : VirtualDubMod 1.5.10.3 | www.virtualdub-fr.org || (build 2550/release)
Writing library : VirtualDubMod build 2550/release
Video
ID : 0
Format : MPEG-4 Visual
Format profile : Advanced Simple@L5
Format settings, BVOP : 1
Format settings, QPel : No
Format settings, GMC : No warppoints
Format settings, Matrix : Default (H.263)
Codec ID : XVID
Codec ID/Hint : XviD
Duration : 1h 39mn
Bit rate : 890 Kbps
Width : 720 pixels
Height : 304 pixels
Display aspect ratio : 2.35:1
Frame rate : 23.976 fps
Color space : YUV
Chroma subsampling : 4:2:0
Bit depth : 8 bits
Scan type : Progressive
Compression mode : Lossy
Bits/(Pixel*Frame) : 0.170
Stream size : 635 MiB (87%)
Writing library : XviD 1.2.1 (UTC 2008-12-04)
Audio
ID : 1
Format : MPEG Audio
Format version : Version 1
Format profile : Layer 3
Codec ID : 55
Codec ID/Hint : MP3
Duration : 1h 39mn
Bit rate mode : Constant
Bit rate : 128 Kbps
Channel(s) : 2 channels
Sampling rate : 44.1 KHz
Compression mode : Lossy
Stream size : 91.4 MiB (12%)
Alignment : Split accross interleaves
Interleave, duration : 42 ms (1.00 video frame)
Interleave, preload duration : 500 ms
Writing library : LAME3.99r
Encoding settings : -m s -V 4 -q 2 -lowpass 17 -b 128

Скриншот c названием фильма

Скриншоты

[Профиль] [ЛС]

Создавать темы 17-Окт-2015 10:26 (спустя 12 минут)

Топик был перенесен из форума Фильмы 2014 года в форум Фильмы 2015
Russian Mafia
 
Кто просматривает тему:

Показать сообщения:    

Текущее время: Сегодня 08:19

Часовой пояс: GMT



Вы не можете начинать темы
Вы не можете отвечать на сообщения
Вы не можете редактировать свои сообщения
Вы не можете удалять свои сообщения
Вы не можете голосовать в опросах
Вы не можете прикреплять файлы к сообщениям
Вы не можете скачивать файлы