Кто там / Knock Knock (Элай Рот / Eli Roth) [2015, США, Чили, Триллер, ужасы, HDRip] + Sub Rus + Original Eng

 
Автор Сообщение

TorrentFilm ®

Пол:

Стаж: 2 года

Сообщений: 7741



Награды: Нет

Торрент-статистика

Создавать темы 14-Окт-2015 00:11

[Цитировать]

Кто там / Knock Knock
Страна: США, Чили
Жанр: Триллер, ужасы
Год выпуска: 2015
Продолжительность: 01:39:47
Перевод: Субтитры
Cубтитры: русские
Оригинальная аудиодорожка: английский
Режиссер: Элай Рот / Eli Roth
В ролях: Киану Ривз, Лоренца Иззо, Ана де Армас, Коллин Кэмп, Игнасия Алламанд, Аарон Барнс
Описание: Архитектор Эван остается на выходных один дома, чтобы закончить проект. За окном бушует непогода, а у двери слышится стук...
Сэмпл: http://sendfile.su/1163134
Качество видео: HDRip
Формат видео: AVI
Видео: XviD, 720x304 (2.35:1), 23,976 fps, 1611 kbps
Аудио: AC-3, 48 kHz, 6 ch, 384 kbps
Формат субтитров: softsub (SRT)

MediaInfo

Формат : AVI
Формат/Информация : Audio Video Interleave
Размер файла : 1,40 Гбайт
Продолжительность : 1 ч. 39 м.
Общий поток : 2004 Кбит/сек
Библиотека кодирования : VirtualDub build 32593/release
Видео
Идентификатор : 0
Формат : MPEG-4 Visual
Профиль формата : Advanced Simple@L5
Параметр BVOP формата : 2
Параметр QPel формата : Нет
Параметр GMC формата : Без точки перехода
Параметр матрицы формата : Default (H.263)
Режим смешивания : Сжатый битовый поток
Идентификатор кодека : XVID
Идентификатор кодека/Подсказка : XviD
Продолжительность : 1 ч. 39 м.
Битрейт : 1611 Кбит/сек
Ширина : 720 пикселей
Высота : 304 пикселя
Соотношение сторон : 2,35:1
Частота кадров : 23,976 кадра/сек
Цветовое пространство : YUV
Субдискретизация насыщенности : 4:2:0
Битовая глубина : 8 бит
Тип развёртки : Прогрессивная
Метод сжатия : С потерями
Бит/(Пиксели*Кадры) : 0.307
Размер потока : 1,12 Гбайт (80%)
Библиотека кодирования : XviD 66
Аудио
Идентификатор : 1
Формат : AC-3
Формат/Информация : Audio Coding 3
Расширение режима : CM (complete main)
Параметр Endianness формата : Big
Идентификатор кодека : 2000
Продолжительность : 1 ч. 39 м.
Вид битрейта : Постоянный
Битрейт : 384 Кбит/сек
Каналы : 6 каналов
Расположение каналов : Front: L C R, Side: L R, LFE
Частота : 48,0 КГц
Битовая глубина : 16 бит
Метод сжатия : С потерями
Размер потока : 274 Мбайт (19%)
Выравнивание : Соединение по промежуткам
Продолжительность промежутка : 42 мс. (1,00 видеокадр)
Время предзагрузки промежутка : 512 мс.

Субтитры

474
00:31:42,425 --> 00:31:45,059
Я не знаю никого из них.
475
00:31:45,061 --> 00:31:47,428
Ну, у меня довольно эклектичный вкус.
476
00:31:48,163 --> 00:31:50,964
У вас есть испанская музыка.
477
00:31:50,966 --> 00:31:53,066
Чилийская, на самом деле.
478
00:31:53,068 --> 00:31:55,228
Моя жена обожает ее, Фрэн Валенсуэла.
479
00:31:57,237 --> 00:31:58,604
Можете поставить?
480
00:31:59,505 --> 00:32:00,505
Конечно.
481
00:32:07,645 --> 00:32:09,646
Она действительно талантлива.
482
00:32:09,648 --> 00:32:11,648
Она начала сочинять, когда ей было 13 лет.
483
00:32:11,650 --> 00:32:14,917
Это ее третий альбом.
484
00:33:36,130 --> 00:33:37,396
Вау!
485
00:33:37,398 --> 00:33:39,278
Как вы узнали, что их можно смиксовать?
486
00:33:40,365 --> 00:33:43,166
Для ди-джеев, это как смешать напиток.
487
00:33:43,168 --> 00:33:45,434
Сначала тебя нужно найти правильные ингредиенты,
488
00:33:45,436 --> 00:33:47,468
тогда получится и микс.
489
00:33:51,072 --> 00:33:53,473
Эван, я хочу признаться.
490
00:33:54,975 --> 00:33:56,375
Да?
491
00:33:56,377 --> 00:33:58,577
Я рада, что мы постучали в вашу дверь.
492
00:33:59,478 --> 00:34:01,645
Мне здесь гораздо веселее, чем на той
493
00:34:01,647 --> 00:34:04,607
дурацкой вечеринке, что мы хотели пойти.
494
00:34:06,417 --> 00:34:09,252
Ну, я должен признаться, обычно здесь не так весело
495
00:34:09,254 --> 00:34:10,653
в 1:30 ночи.

Скриншот c названием фильма

Скриншоты

[Профиль] [ЛС]
Кто просматривает тему:

Показать сообщения:    

Текущее время: Сегодня 18:38

Часовой пояс: GMT



Вы не можете начинать темы
Вы не можете отвечать на сообщения
Вы не можете редактировать свои сообщения
Вы не можете удалять свои сообщения
Вы не можете голосовать в опросах
Вы не можете прикреплять файлы к сообщениям
Вы не можете скачивать файлы