Кто там? / Knock Knock (2015) WEB-DL 720p | L1

 
Автор Сообщение

достали все ®

Пол:

Стаж: 1 год 8 месяцев

Сообщений: 6542



Награды: 12 (Подробнее)

Top Releaser 4 (Количество: 1) Mega Releaser 3 (Количество: 1) За внесенный вклад в развитие сайта (Количество: 1)
Торрент-статистика

Создавать темы 11-Окт-2015 02:52

[Цитировать]

Информация о фильме
Название: Кто там?
Оригинальное название: Knock Knock
Год выпуска: 2015
Жанр: Триллер, ужасы
Режиссер: Элай Рот
В ролях: Киану Ривз, Лоренца Иззо, Ана де Армас, Игнасия Алламанд, Аарон Барнс, Коллин Кэмп
О фильме: Отправив семью за город, архитектор Эван остается на выходных дома один доделывать срочный проект. К нему стучатся две милые молодые девушки лет двадцати, насквозь промокшие и заблудившиеся. Эван не мог предположить, что протянутая рука помощи обернется для него чередой изощренных издевательств, изысканных пыток и медленного садистского уничтожения семьи…


Выпущено: Чили, США
Продолжительность: 01:39:47
Озвучивание: Любительское (одноголосое) [xixidoc]
Файл
Формат: MKV
Качество: WEB-DL 720p
Видео: 3976 kb/s, 1280x534
Звук: Russian: AC3, 192 kb/s (2 ch) / English: AC3, 384 kb/s (6 ch)
Субтитры: English
Размер: 3.23 GB-

Media Info

General
Unique ID : 209350578848038833427173700990571322555 (0x9D7F747237BBAE5BBDEBFE49F08F1CBB)
Complete name : C:UsersuserDesktopXn0.T4m.2015.L1.WEB-DL.720p.mkv
Format : Matroska
Format version : Version 4 / Version 2
File size : 3.24 GiB
Duration : 1h 39mn
Overall bit rate : 4 644 Kbps
Encoded date : UTC 2015-10-10 22:16:11
Writing application : mkvmerge v6.9.1 ('Blue Panther') 64bit built on Apr 18 2014 18:23:38
Writing library : libebml v1.3.0 + libmatroska v1.4.1
DURATION : 01:31:43.811000000
NUMBER_OF_FRAMES : 1348
NUMBER_OF_BYTES : 50186
_STATISTICS_WRITING_APP : mkvmerge v7.0.0 ('Where We Going') 64bit built on Jun 9 2014 15:16:27
_STATISTICS_WRITING_DATE_UTC : 2015-10-09 05:09:08
_STATISTICS_TAGS : BPS DURATION NUMBER_OF_FRAMES NUMBER_OF_BYTES
Video
ID : 1
Format : AVC
Format/Info : Advanced Video Codec
Format profile : Main@L3.1
Format settings, CABAC : No
Format settings, ReFrames : 2 frames
Codec ID : V_MPEG4/ISO/AVC
Duration : 1h 39mn
Bit rate : 3 976 Kbps
Width : 1 280 pixels
Height : 534 pixels
Display aspect ratio : 2.40:1
Frame rate mode : Constant
Frame rate : 23.976 fps
Color space : YUV
Chroma subsampling : 4:2:0
Bit depth : 8 bits
Scan type : Progressive
Bits/(Pixel*Frame) : 0.243
Stream size : 2.77 GiB (86%)
Language : English
Default : Yes
Forced : No
Color range : Limited
Color primaries : BT.709
Transfer characteristics : BT.709
Matrix coefficients : BT.709
Audio #1
ID : 2
Format : AC-3
Format/Info : Audio Coding 3
Mode extension : CM (complete main)
Format settings, Endianness : Big
Codec ID : A_AC3
Duration : 1h 39mn
Bit rate mode : Constant
Bit rate : 192 Kbps
Channel(s) : 2 channels
Channel positions : Front: L R
Sampling rate : 44.1 KHz
Compression mode : Lossy
Stream size : 137 MiB (4%)
Language : Russian
Default : Yes
Forced : No
Audio #2
ID : 3
Format : AC-3
Format/Info : Audio Coding 3
Mode extension : CM (complete main)
Format settings, Endianness : Big
Codec ID : A_AC3
Duration : 1h 39mn
Bit rate mode : Constant
Bit rate : 384 Kbps
Channel(s) : 6 channels
Channel positions : Front: L C R, Side: L R, LFE
Sampling rate : 48.0 KHz
Compression mode : Lossy
Stream size : 274 MiB (8%)
Language : English
Default : No
Forced : No
Text
ID : 4
Format : UTF-8
Codec ID : S_TEXT/UTF8
Codec ID/Info : UTF-8 Plain Text
Language : English
Default : No
Forced : No
-

Скриншоты | повтор:

- -
[Профиль] [ЛС]
Кто просматривает тему:

Показать сообщения:    

Текущее время: Сегодня 10:31

Часовой пояс: GMT



Вы не можете начинать темы
Вы не можете отвечать на сообщения
Вы не можете редактировать свои сообщения
Вы не можете удалять свои сообщения
Вы не можете голосовать в опросах
Вы не можете прикреплять файлы к сообщениям
Вы не можете скачивать файлы