Кто сказал, что мы умерли? / Sempre vivu! / Qui a dit que nous etions morts? (Робен Ренуччи / Robin Renucci) [2006, Франция, трагифарс, черный юмор, DVB] Original (Fre) + Sub (Rus, Eng, Fre, Deu)

 
Автор Сообщение

TorrentFilm ®

Пол:

Стаж: 2 года

Сообщений: 7741



Награды: Нет

Торрент-статистика

Создавать темы 01-Авг-2015 00:05

[Цитировать]

Кто сказал, что мы умерли?
Sempre vivu!- Страна: Франция
Жанр: трагифарс, черный юмор
Год выпуска: 2006
Продолжительность: 01:29:25Перевод: Субтитры (русский перевод М.Лабори, Éclair Group)
Cубтитры: русские, английские, французские, немецкие, нидерландские, румынские
Оригинальная аудиодорожка: французский
Режиссер: Робен Ренуччи / Robin Renucci
В ролях: Рене Жоно / René Jauneau (Ange Michelangeli), Анжель Массей / Angèle Massei (Lellè Michelangeli), Владимир Йорданов / Wladimir Yordanoff (Sauveur Michelangeli), Элиз Тьельруа / Elise Tielrooy (Carole), Пьер лаплас / Pierre Laplace (Rinatu Michelangeli), Натали Грандом / Nathalie Grandhomme (Anna)
Описание: Не проверив, что мэр отдаленной горной корсиканской деревушки мертв, ее жители закрутились в вихре лжи и недоразумений...
Доп. информация: Hot Bird (13.0°E) TV5MONDE Europe DVB-S. Во время нефранцузской речи дополнительно вшитые французские субтитры.
Награды: приз за лучший фильм на иностранном языке Salerno International Film Festival 2006; 4 номинации Cinémed - Festival Méditerranéen de Montpellier 2006 (приз "Золотая Антигона", приз критиков, приз зрительских симпатий,специальный приз); номинация на лучший полнометражный фильм Arte Mare - Festival du Film Méditerranée de Bastia 2006; др. награды.

Качество видео: DVB
Формат видео: DVD Video
Видео: MPEG Video 2, 720x576@1024x576 (16:9), 25 fps, ~3209 kbps avg, 0.310 bit/pixel
Аудио: MPEG Audio 2, 2 ch, 48 kHz, ~192.00 kbps avg - французский
Формат субтитров: prerendered (IDX+SUB)

DVDInfo, MediaInfo

Title: [apreder]Sempre_vivu(2006)DVBSize: 2.17 Gb ( 2 271 780,00 KBytes ) - DVD-5Enabled regions: 1, 2, 3, 4, 5, 6, 7, 8
VTS_01 : Play Length: 01:29:25 Video: PAL 16:9 (720x576) VBR, Auto Letterboxed Audio: Francais (MPEG1, 2 ch) Subtitles: Russian English Francais Deutsch Nederlands Romanian
ОбщееПолное имя : F:\My Torrents 3\[apreder]Sempre_vivu(2006)DVB\VIDEO_TS\VTS_01_2.VOBФормат : MPEG-PSРазмер файла : 1024 МбайтПродолжительность : 41 м.Режим общего битрейта : ПеременныйОбщий поток : 3471 Кбит/сек
ВидеоИдентификатор : 224 (0xE0)Формат : MPEG VideoВерсия формата : Version 2Профиль формата : Main@MainПараметр BVOP формата : ДаПараметр матрицы формата : ВыборочнаяПараметр GOP формата : M=4, N=12Format_Settings_PictureStructure : FrameПродолжительность : 41 м.Вид битрейта : ПеременныйБитрейт : 3209 Кбит/секШирина : 720 пикселейВысота : 576 пикселейСоотношение сторон : 16:9Частота кадров : 25,000 кадров/секСтандарт вещания : PALЦветовое пространство : YUVСубдискретизация насыщенности : 4:2:0Битовая глубина : 8 битТип развёртки : ЧересстрочнаяПорядок развёртки : Верхнее поле первоеМетод сжатия : С потерямиБит/(Пиксели*Кадры) : 0.310Временной код первого кадра : 00:41:18:07Оригинал временного кода : Group of pictures headerРазмер потока : 947 Мбайт (92%)
АудиоИдентификатор : 192 (0xC0)Формат : MPEG AudioВерсия формата : Version 1Профиль формата : Layer 2Режим : Joint stereoРасширение режима : Intensity Stereo + MS StereoПродолжительность : 41 м.Вид битрейта : ПостоянныйБитрейт : 192 Кбит/секКаналы : 2 каналаЧастота : 48,0 КГцМетод сжатия : С потерямиЗадержка видео : -280 мс.Размер потока : 56,6 Мбайт (6%)
Текст #1Идентификатор : 189 (0xBD)-32 (0x20)Формат : RLEФормат/Информация : Run-length encodingРежим смешивания : DVD-Video
Текст #2Идентификатор : 189 (0xBD)-33 (0x21)Формат : RLEФормат/Информация : Run-length encodingРежим смешивания : DVD-Video
Текст #3Идентификатор : 189 (0xBD)-34 (0x22)Формат : RLEФормат/Информация : Run-length encodingРежим смешивания : DVD-Video
Текст #4Идентификатор : 189 (0xBD)-35 (0x23)Формат : RLEФормат/Информация : Run-length encodingРежим смешивания : DVD-Video
Текст #5Идентификатор : 189 (0xBD)-36 (0x24)Формат : RLEФормат/Информация : Run-length encodingРежим смешивания : DVD-Video
Текст #6Идентификатор : 189 (0xBD)-37 (0x25)Формат : RLEФормат/Информация : Run-length encodingРежим смешивания : DVD-Video

Скриншот c названием фильма

Скриншоты


Резервные скриншоты


-[2'481]
[Профиль] [ЛС]

Создавать темы 06-Авг-2015 22:23 (спустя 5 дней)

Топик был перенесен из форума Фильмы до 2014 года в форум Фильмы до 2012 года
sergej644
 
Кто просматривает тему:

Показать сообщения:    

Текущее время: Сегодня 12:33

Часовой пояс: GMT



Вы не можете начинать темы
Вы не можете отвечать на сообщения
Вы не можете редактировать свои сообщения
Вы не можете удалять свои сообщения
Вы не можете голосовать в опросах
Вы не можете прикреплять файлы к сообщениям
Вы не можете скачивать файлы