Кто правит Америкой / Who rules America (Дэнни Шехтер / Danny Schechter) [2012, Документальный, психология, HDTVRip 720p]

 
Автор Сообщение

TorrentFilm ®

Пол:

Стаж: 2 года

Сообщений: 7741



Награды: Нет

Торрент-статистика

Создавать темы 10-Апр-2015 00:03

[Цитировать]

Кто правит Америкой / Who rules America
Год выпуска: 2012
Страна: Иран
Студия: PRESS TV
Жанр: Документальный, психология
Продолжительность: 6 x ~ 00:25:00
Перевод: Одноголосый закадровый, профессиональный
Русские субтитры: есть
Режиссер: Дэнни Шехтер / Danny Schechter
Описание: Серия документальных фильмов, разоблачающих демократическую систему США. В чем заключается теория 99%? Какое влияние на политику США оказывают Wall Street, крупные промышленные корпорации и СМИ? Экономисты, аналитики, активисты и простые граждане пытаются найти ответ на вопрос «Кому на самом деле принадлежит власть в Америке?» Добро пожаловать на Уолл-стрит - эпицентр финансовой власти в Америке, мировой столицы мира денег. В глобальном масштабе, ориентированные финансовые фирмы, основанные на Нью-Йоркской бирже, имеют чрезвычайное влияние на политику и политиков этой страны. Никто их не избирал, и на самом деле эти финансовые компании пытаются отменить правила и новые законы, регулирующие их, налагаемые Конгрессом. Люди на Уолл-стрит являются лишь одной из ряда неизбранной и очень мощной силы, которые работают в тени, за кулисами. Есть средства массовой информации, военно-промышленный комплекс, корпорации, и другие силы, которые будут исследованы в этом телесериале, который задает вопрос: Кто правит Америкой? Этот документальный фильм предоставляет комплексный взгляд на так называемую демократическую правящую систему Соединенных Штатов Америки и показывает фактические полномочия, которые имеют правящие слои.
Сэмпл: http://multi-up.com/1042398
Тип релиза: HDTVRip 720p
Контейнер: MKV
Видео: MPEG-4 AVC, ~ 5100 Кбит/с, 1280x720, 25 кадр/с, 16:9
Аудио: Русский AC3, 6 ch, 384 Кбит/с
Аудио 2: Английский MP2, 2 ch, 192 Кбит/с
Формат субтитров: Teletext Sub page 888

MediaInfo

GeneralUnique ID : 206992551338219836321856424540578042375 (0x9BB950B6C346B66BBE3CAB87B7F8D207)Complete name : M:\Торренты\Документальные\Кто правит Америкой\Who rules America_part_6_720p.mkvFormat : MatroskaFormat version : Version 4 / Version 2File size : 1 004 MiBDuration : 24mn 43sOverall bit rate : 5 678 KbpsEncoded date : UTC 2015-04-05 20:05:23Writing application : mkvmerge v6.6.0 ('The Edge Of The In Between') built on Dec 1 2013 17:55:00Writing library : libebml v1.3.0 + libmatroska v1.4.1
VideoID : 1Format : AVCFormat/Info : Advanced Video CodecFormat profile : High@L4.1Format settings, CABAC : YesFormat settings, ReFrames : 9 framesCodec ID : V_MPEG4/ISO/AVCDuration : 24mn 43sBit rate : 5 100 KbpsWidth : 1 280 pixelsHeight : 720 pixelsDisplay aspect ratio : 16:9Frame rate mode : ConstantFrame rate : 25.000 fpsColor space : YUVChroma subsampling : 4:2:0Bit depth : 8 bitsScan type : ProgressiveBits/(Pixel*Frame) : 0.221Stream size : 882 MiB (88%)Writing library : x264 core 146 r2538 121396cEncoding settings : cabac=1 / ref=9 / deblock=1:0:0 / analyse=0x3:0x133 / me=umh / subme=9 / psy=1 / psy_rd=1.00:0.10 / mixed_ref=1 / me_range=32 / chroma_me=1 / trellis=2 / 8x8dct=1 / cqm=0 / deadzone=21,11 / fast_pskip=1 / chroma_qp_offset=-3 / threads=6 / lookahead_threads=1 / sliced_threads=0 / nr=0 / decimate=0 / interlaced=0 / bluray_compat=0 / constrained_intra=0 / bframes=12 / b_pyramid=2 / b_adapt=2 / b_bias=0 / direct=3 / weightb=1 / open_gop=0 / weightp=2 / keyint=250 / keyint_min=23 / scenecut=40 / intra_refresh=0 / rc=2pass / mbtree=0 / bitrate=5100 / ratetol=1.0 / qcomp=0.60 / qpmin=0 / qpmax=69 / qpstep=4 / cplxblur=20.0 / qblur=0.5 / ip_ratio=1.40 / pb_ratio=1.30 / aq=1:1.00Language : EnglishDefault : YesForced : No
Audio #1ID : 2Format : MPEG AudioFormat version : Version 1Format profile : Layer 2Mode : Joint stereoMode extension : Intensity Stereo + MS StereoCodec ID : A_MPEG/L2Codec ID/Hint : MP2Duration : 24mn 43sBit rate mode : ConstantBit rate : 192 KbpsChannel(s) : 2 channelsSampling rate : 48.0 KHzCompression mode : LossyDelay relative to video : 79msStream size : 34.0 MiB (3%)Language : EnglishDefault : NoForced : No
Audio #2ID : 3Format : AC-3Format/Info : Audio Coding 3Mode extension : CM (complete main)Format settings, Endianness : BigCodec ID : A_AC3Duration : 24mn 43sBit rate mode : ConstantBit rate : 384 KbpsChannel(s) : 6 channelsChannel positions : Front: L C R, Side: L R, LFESampling rate : 48.0 KHzBit depth : 16 bitsCompression mode : LossyDelay relative to video : 31msStream size : 67.9 MiB (7%)Language : RussianDefault : NoForced : Yes
[Профиль] [ЛС]
Кто просматривает тему:

Показать сообщения:    

Текущее время: Сегодня 16:55

Часовой пояс: GMT



Вы не можете начинать темы
Вы не можете отвечать на сообщения
Вы не можете редактировать свои сообщения
Вы не можете удалять свои сообщения
Вы не можете голосовать в опросах
Вы не можете прикреплять файлы к сообщениям
Вы не можете скачивать файлы