Кто подставил кролика Роджера / Who Framed Roger Rabbit (1988) BDRip 720p от NNNB | 25th Anniversary Edition

 
Автор Сообщение

Russian Mafia ®

Пол:

Стаж: 1 год 8 месяцев

Сообщений: 4257



Награды: 10 (Подробнее)

Mega Seeder 2 (Количество: 1) Mega Seeder 4 (Количество: 1) Mega Seeder 1 (Количество: 1)
Торрент-статистика

Создавать темы 18-Авг-2016 14:48

[Цитировать]

Информация о фильме
Русское название: Кто подставил кролика Роджера
Оригинальное название: Who Framed Roger Rabbit
Год выхода: 1988
Жанр: мультфильм, фэнтези, комедия, криминал
Режиссер: Роберт Земекис
Выпущено: США
Продолжительность: 01:43:45
Перевод: Дублированный
В ролях: Боб Хоскинс, Кристофер Ллойд, Джоанна Кэссиди, Чарльз Флайшер, Стабби Кэй, Алан Тилверн, Ричард ЛеПарментье, Лу Хирш, Бетси Брэнтли, Джоэл Силвер-Сюжет фильма
Частный детектив расследует загадочное преступление, в котором подозревается… мультипликационный персонаж кролик Роджер! Сыщик попадает в непредсказуемый мир, где его ожидают нарисованные злодеи с настоящими револьверами, говорящий автомобиль и соблазнительная мультяшная красотка. Наконец, на горизонте появляется мрачная фигура того, кто подставил кролика Роджера…-Файл
Качество: BDRip 1080p (исходник EUR Blu-ray Disc)
Формат: MKV
Видео: 1280x694, 5072 Кбит/сек, 23,976 кадр/сек, AVC, x264, High@L4.1, 1.85:1, 0.238 Бит/[Пиксели*Кадры]
Аудио 1: AC-3, 320 Кбит/сек, 2 канала(ов), 48,0 КГц - Дублированный / Русский
Аудио 2: AC-3, 640 Кбит/сек, 6 канала(ов), 48,0 КГц - Оригинал / Английский
Субтитры: Русские | Полные, Английские | Полные
Форсированные субтитры: Русские
Чаптеры (Главы): Есть-
Автор Рипа: Группа: мы в VK-

Скриншоты

MI

Format : Matroska
Format version : Version 2
File size : 4.37 GiB
Duration : 1h 43mn
Overall bit rate : 6 026 Kbps
Movie name : Who Framed Roger Rabbit.(1988).BDRip.720p.[envy]
Encoded date : UTC 2016-08-18 13:49:04
Writing application : mkvmerge v5.8.0 ('No Sleep / Pillow') built on Sep 2 2012 15:37:04
Writing library : libebml v1.2.3 + libmatroska v1.3.0
Video
ID : 1
Format : AVC
Format/Info : Advanced Video Codec
Format profile : High@L4.1
Format settings, CABAC : Yes
Format settings, ReFrames : 9 frames
Codec ID : V_MPEG4/ISO/AVC
Duration : 1h 43mn
Bit rate : 5 072 Kbps
Width : 1 280 pixels
Height : 694 pixels
Display aspect ratio : 1.85:1
Frame rate mode : Constant
Frame rate : 23.976 (24000/1001) fps
Color space : YUV
Chroma subsampling : 4:2:0
Bit depth : 8 bits
Scan type : Progressive
Bits/(Pixel*Frame) : 0.238
Stream size : 3.58 GiB (82%)
Title : Who Framed Roger Rabbit.(1988).BDRip.720p.[envy]
Writing library : x264 core 148 r2705 3f5ed56
Encoding settings : cabac=1 / ref=9 / deblock=1:-3:-3 / analyse=0x3:0x113 / me=umh / subme=11 / psy=1 / psy_rd=1.00:0.00 / mixed_ref=1 / me_range=32 / chroma_me=1 / trellis=2 / 8x8dct=1 / cqm=0 / deadzone=21,11 / fast_pskip=0 / chroma_qp_offset=-2 / threads=12 / lookahead_threads=2 / sliced_threads=0 / nr=0 / decimate=1 / interlaced=0 / bluray_compat=0 / constrained_intra=0 / bframes=7 / b_pyramid=2 / b_adapt=2 / b_bias=0 / direct=3 / weightb=1 / open_gop=0 / weightp=2 / keyint=240 / keyint_min=23 / scenecut=40 / intra_refresh=0 / rc=2pass / mbtree=0 / bitrate=5072 / ratetol=2.0 / qcomp=0.60 / qpmin=0 / qpmax=69 / qpstep=4 / cplxblur=20.0 / qblur=0.5 / ip_ratio=1.40 / pb_ratio=1.30 / aq=2:0.70
Language : English
Default : Yes
Forced : No
Audio #1
ID : 2
Format : AC-3
Format/Info : Audio Coding 3
Mode extension : CM (complete main)
Format settings, Endianness : Big
Codec ID : A_AC3
Duration : 1h 43mn
Bit rate mode : Constant
Bit rate : 320 Kbps
Channel(s) : 2 channels
Channel positions : Front: L R
Sampling rate : 48.0 KHz
Frame rate : 31.250 fps (1536 spf)
Compression mode : Lossy
Stream size : 237 MiB (5%)
Title : Dub
Language : Russian
Default : Yes
Forced : No
Audio #2
ID : 3
Format : AC-3
Format/Info : Audio Coding 3
Mode extension : CM (complete main)
Format settings, Endianness : Big
Codec ID : A_AC3
Duration : 1h 43mn
Bit rate mode : Constant
Bit rate : 640 Kbps
Channel(s) : 6 channels
Channel positions : Front: L C R, Side: L R, LFE
Sampling rate : 48.0 KHz
Frame rate : 31.250 fps (1536 spf)
Compression mode : Lossy
Stream size : 475 MiB (11%)
Title : Eng
Language : English
Default : No
Forced : No
Text #1
ID : 4
Format : UTF-8
Codec ID : S_TEXT/UTF8
Codec ID/Info : UTF-8 Plain Text
Title : Rus forced
Language : Russian
Default : Yes
Forced : Yes
Text #2
ID : 5
Format : UTF-8
Codec ID : S_TEXT/UTF8
Codec ID/Info : UTF-8 Plain Text
Title : Rus full
Language : Russian
Default : No
Forced : No
Text #3
ID : 6
Format : UTF-8
Codec ID : S_TEXT/UTF8
Codec ID/Info : UTF-8 Plain Text
Title : Eng full
Language : English
Default : No
Forced : No
Menu
00:00:00.000 : :Chapter 01
00:05:33.458 : :Chapter 02
00:09:44.625 : :Chapter 03
00:14:06.136 : :Chapter 04
00:20:40.614 : :Chapter 05
00:28:53.022 : :Chapter 06
00:34:07.128 : :Chapter 07
00:41:12.094 : :Chapter 08
00:46:27.993 : :Chapter 09
00:49:36.890 : :Chapter 10
00:57:14.013 : :Chapter 11
01:03:33.434 : :Chapter 12
01:07:24.373 : :Chapter 13
01:12:08.782 : :Chapter 14
01:16:45.809 : :Chapter 15
01:22:05.921 : :Chapter 16
01:28:49.032 : :Chapter 17
01:34:23.199 : :Chapter 18
-
[Профиль] [ЛС]
Кто просматривает тему:

Показать сообщения:    

Текущее время: Сегодня 05:15

Часовой пояс: GMT



Вы не можете начинать темы
Вы не можете отвечать на сообщения
Вы не можете редактировать свои сообщения
Вы не можете удалять свои сообщения
Вы не можете голосовать в опросах
Вы не можете прикреплять файлы к сообщениям
Вы не можете скачивать файлы