Крякнутые каникулы (2016) WEB-DLRip 720p

 
Автор Сообщение

Russian Mafia ®

Пол:

Стаж: 1 год 8 месяцев

Сообщений: 4253



Награды: 10 (Подробнее)

Mega Seeder 1 (Количество: 1) Top Releaser 4 (Количество: 1) Top Releaser 2 (Количество: 1)
Торрент-статистика

Создавать темы 28-Мар-2016 04:02

[Цитировать]

Информация о фильме
Название: Крякнутые каникулы
Год выхода: 2016
Жанр: мультфильм, комедия, приключения, семейный
Режиссер: Виктор Лакисов
В ролях: Никита Пресняков, Владимир Пресняков мл., Эвелина Блёданс, Полина Максимова, Александр Головин, Всеволод Кузнецов, Борис Токарев, Станислав Стрелков, Елена Шульман, Михаил Лукашов
О фильме: Перелётные кряквы из России, решившие провести свой отдых на Гавайях, сбиваются с пути и приземляются на китайский остров, на котором живут утки-мандаринки. Между двумя стаями возникает много смешных и курьёзных ситуаций. Пока отцы дерутся и спорят, Ник, сын императора мандаринок и Ариша, дочь командира русских крякв, знакомятся и становятся друзьями. Дети должны объединить мандаринок и крякв и победить Ведьму Марго, которая хочет погубить солнце.

Выпущено: Россия / Animation Studio RIM, Asymmetric VFX
Продолжительность: 01:21:43
Перевод: Оригинал
Файл
Качество: WEB-DL 720p
Формат: MKV
Видео: AVC, 2000 Kb/s, 1280x720
Звук: AC3, 448 Kb/s (2 ch)
Субтитры: нет

Скрытый текст

Общее
Уникальный идентификатор : 210423547572396002232144424158986363136 (0x9E4E19E37C03AF47825BD335813DE100)
Полное имя : E:ЗагрузкиКрякнутые.каникулы.2016.WEB-DL.[720p].NNMClub.to.mkv
Формат : Matroska
Версия формата : Version 4 / Version 2
Размер файла : 1,40 Гбайт
Продолжительность : 1 ч. 21 м.
Общий поток : 2449 Кбит/сек
Дата кодирования : UTC 2016-03-27 15:16:08
Программа кодирования : mkvmerge v6.8.0 ('Theme for Great Cities') 64bit built on Mar 2 2014 21:34:26
Библиотека кодирования : libebml v1.3.0 + libmatroska v1.4.1
Видео
Идентификатор : 1
Формат : AVC
Формат/Информация : Advanced Video Codec
Профиль формата : High@L3.1
Параметр CABAC формата : Да
Параметр ReFrames формата : 3 кадра
Идентификатор кодека : V_MPEG4/ISO/AVC
Продолжительность : 1 ч. 21 м.
Битрейт : 2000 Кбит/сек
Ширина : 1280 пикселей
Высота : 720 пикселей
Соотношение сторон : 16:9
Режим частоты кадров : Постоянный
Частота кадров : 24,000 кадра/сек
Цветовое пространство : YUV
Субдискретизация насыщенности : 4:2:0
Битовая глубина : 8 бит
Тип развёртки : Прогрессивная
Бит/(Пиксели*Кадры) : 0.090
Размер потока : 1,11 Гбайт (80%)
Библиотека кодирования : x264 core 142 r2479 dd79a61
Настройки программы : cabac=1 / ref=3 / deblock=1:0:0 / analyse=0x3:0x133 / me=hex / subme=6 / psy=1 / psy_rd=1.00:0.00 / mixed_ref=0 / me_range=16 / chroma_me=1 / trellis=1 / 8x8dct=1 / cqm=0 / deadzone=21,11 / fast_pskip=0 / chroma_qp_offset=-2 / threads=12 / lookahead_threads=2 / sliced_threads=0 / nr=0 / decimate=1 / interlaced=0 / bluray_compat=0 / constrained_intra=0 / bframes=3 / b_pyramid=1 / b_adapt=2 / b_bias=0 / direct=1 / weightb=1 / open_gop=0 / weightp=2 / keyint=96 / keyint_min=49 / scenecut=0 / intra_refresh=0 / rc_lookahead=40 / rc=2pass / mbtree=1 / bitrate=2000 / ratetol=1.0 / qcomp=0.60 / qpmin=0 / qpmax=69 / qpstep=4 / cplxblur=20.0 / qblur=0.5 / ip_ratio=1.40 / aq=1:1.00
Default : Да
Forced : Нет
Цветовой диапазон : Limited
Основные цвета : BT.709
Характеристики трансфера : BT.709
Коэффициенты матрицы : BT.709
Аудио
Идентификатор : 2
Формат : AC-3
Формат/Информация : Audio Coding 3
Расширение режима : CM (complete main)
Параметр Endianness формата : Big
Идентификатор кодека : A_AC3
Продолжительность : 1 ч. 21 м.
Вид битрейта : Постоянный
Битрейт : 448 Кбит/сек
Каналы : 2 канала
Расположение каналов : Front: L R
Частота : 48,0 КГц
Частота кадров : 31,250 кадров/сек (1536 spf)
Метод сжатия : С потерями
Задержка видео : -83 мс.
Размер потока : 262 Мбайт (18%)
Язык : Russian
Default : Да
Forced : Нет

Скриншоты

[Профиль] [ЛС]
Кто просматривает тему:

Форум Тема Автор Размер
Отечественные мультфильмы Крякнутые каникулы (2015) WEB-DLRip Smokke 743 MB
Показать сообщения:    

Текущее время: Сегодня 21:01

Часовой пояс: GMT



Вы не можете начинать темы
Вы не можете отвечать на сообщения
Вы не можете редактировать свои сообщения
Вы не можете удалять свои сообщения
Вы не можете голосовать в опросах
Вы не можете прикреплять файлы к сообщениям
Вы не можете скачивать файлы