Крысиные бега / Rat Race (2001) WEB-DLRip-AVC | D

 
Автор Сообщение

Razboynik ®

Пол:

Стаж: 1 год 11 месяцев

Сообщений: 106



Награды: Нет

Торрент-статистика

Создавать темы 14-Сен-2018 07:38

[Цитировать]

Информация о фильме
Название: Крысиные бега
Оригинальное название: Rat Race
Год выхода: 2001
Жанр: комедия, приключения
Режиссер: Джерри Цукер
В ролях: Роуэн Эткинсон (Enrico Pollini), Кьюба Гудинг мл. (Owen Templeton), Джон Ловиц (Randy Pear), Джон Клиз (Donald P. Sinclair), Вупи Голдберг (Vera Baker), Сет Грин (Duane Cody), Брекин Мейер (Nick Schaffer), Эми Смарт (Tracy Faucet), Винс Вьелуф (Blaine Cody), Ланей Чэпман (Merrill Jennings), Кэти Нэджими (Beverly Pear), Дженика Бергер (Hotel Clerk)
О фильме:
Владелец крупнейшего казино Лас-Вегаса решает, что его самым богатым клиентам нужно нечто особенное. Он готовит для них нелегальный тотализатор — «Крысиные бега». Участники забега — обычные люди, случайно выбранные из толпы.
Они получают шанс разбогатеть: кто первым доберется из Лас-Вегаса до захолустного городка Силвер-сити, тот получит 2 млн.$, спрятанных в ячейке камеры хранения. Никто из соискателей и не догадывается, что за каждым их шагом следит хозяин казино и его клиенты, сделавшие собственные ставки на победителя…

Страна: Канада, США
Студия: Paramount Pictures, Zucker Productions
Продолжительность: 01:52:05
Перевод: Профессиональный (дублированный) Мосфильм
Файл
Качество: WEB-DLRip-AVC
Формат: Matroska
Видео: 984x412 at 23.976 fps, ~1660 kbps
Aудио: 48 kHz, AC3, 2/0 (L,R) ch, ~192 kbps
Субтитры: Russian, English
--

M/I

General
Unique ID : 73143886259419106911575892455478197971 (0x37070005373F47ED90D6DDCEABB6FED3)
Complete name : F:Крысиные бега_2001_WEB_DLRIP-AVC.[-=DoMiNo=-].mkv
Format : Matroska
Format version : Version 4 / Version 2
File size : 1.45 GiB
Duration : 1 h 52 min
Overall bit rate : 1 855 kb/s
Movie name : Крысиные бега
Deion : Владелец крупнейшего казино Лас-Вегаса решает, что его самым богатым клиентам нужно нечто особенное. Он готовит для них нелегальный тотализатор — «Крысиные бега». Участники забега — обычные люди, случайно выбранные из толпы. / / Они получают шанс разбогатеть: кто первым доберется из Лас-Вегаса до захолустного городка Силвер-сити, тот получит 2 млн.$, спрятанных в ячейке камеры хранения. Никто из соискателей и не догадывается, что за каждым их шагом следит хозяин казино и его клиенты, сделавшие собственные ставки на победителя…
Writing application : XviD4PSP 7.0.427 DAILY
Writing library : Lavf57.71.100
ErrorDetectionType : Per level 1
Attachments : poster.jpg
COMPOSER : Джон Пауэлл
COUNTRY : США
DATE : 2001
DIRECTOR : Джерри Цукер
ENCODING_INFO : MATROSKA,WEBM > MKV Пользовательский / H264 > X264 VBR-2P 1660kbps Пользовательский / AC3 > COPY Безопасное
GENRE : комедия, приключения
HD_VIDEO : 1
IMDB_RATING : 6.40
ITUNEXTC : mpaa|PG-13|300|
Language : und
MEDIA_TYPE : 9
ORIGINAL_TITLE : Rat Race
PRODUCER : Шон Дэниэл, Джанет Цукер, Джерри Цукер, Джеймс Джекс, Ричард Вэйн
RATING : 7.162
WRITER : Энди Брэкман
Video
ID : 1
Format : AVC
Format/Info : Advanced Video Codec
Format profile : High@L4.1
Format settings : CABAC / 11 Ref Frames
Format settings, CABAC : Yes
Format settings, ReFrames : 11 frames
Codec ID : V_MPEG4/ISO/AVC
Duration : 1 h 52 min
Bit rate : 1 660 kb/s
Width : 984 pixels
Height : 412 pixels
Display aspect ratio : 2.40:1
Frame rate mode : Constant
Frame rate : 23.976 (24000/1001) FPS
Color space : YUV
Chroma subsampling : 4:2:0
Bit depth : 8 bits
Scan type : Progressive
Bits/(Pixel*Frame) : 0.171
Stream size : 1.27 GiB (88%)
Title : RIP_BY_-=DoMiNo=-
Writing library : x264 core 152 r2851M ba24899
Encoding settings : cabac=1 / ref=11 / deblock=1:-3:-3 / analyse=0x3:0x133 / me=umh / subme=10 / psy=1 / psy_rd=1.00:0.05 / mixed_ref=1 / me_range=32 / chroma_me=1 / trellis=2 / 8x8dct=1 / cqm=0 / deadzone=21,11 / fast_pskip=1 / chroma_qp_offset=-3 / threads=6 / lookahead_threads=1 / sliced_threads=0 / nr=0 / decimate=1 / interlaced=0 / bluray_compat=0 / constrained_intra=0 / bframes=12 / b_pyramid=2 / b_adapt=2 / b_bias=0 / direct=3 / weightb=1 / open_gop=0 / weightp=2 / keyint=240 / keyint_min=24 / scenecut=40 / intra_refresh=0 / rc_lookahead=60 / rc=2pass / mbtree=1 / bitrate=1660 / ratetol=1.0 / qcomp=0.70 / qpmin=0 / qpmax=69 / qpstep=4 / cplxblur=20.0 / qblur=0.5 / ip_ratio=1.40 / aq=1:1.00
Language : English
Default : Yes
Forced : No
Color range : Limited
Color primaries : BT.709
Transfer characteristics : BT.709
Matrix coefficients : BT.709
Audio
ID : 2
Format : AC-3
Format/Info : Audio Coding 3
Codec ID : A_AC3
Duration : 1 h 52 min
Bit rate mode : Constant
Bit rate : 192 kb/s
Channel(s) : 2 channels
Channel positions : Front: L R
Sampling rate : 48.0 kHz
Frame rate : 31.250 FPS (1536 SPF)
Bit depth : 16 bits
Compression mode : Lossy
Stream size : 154 MiB (10%)
Title : DUB_Мосфильм
Language : Russian
Service kind : Complete Main
Default : Yes
Forced : No
Text #1
ID : 3
Format : UTF-8
Codec ID : S_TEXT/UTF8
Codec ID/Info : UTF-8 Plain Text
Duration : 1 h 46 min
Language : Russian
Default : Yes
Forced : No
Text #2
ID : 4
Format : UTF-8
Codec ID : S_TEXT/UTF8
Codec ID/Info : UTF-8 Plain Text
Duration : 1 h 52 min
Language : English
Default : No
Forced : No
Menu
00:00:00.000 : :Stupid Mistakes
00:07:29.000 : :You're A Winner
00:14:24.000 : :A Race For Money
00:22:33.000 : :Flying Out Of Vegas
00:30:18.000 : :Driving Out Of Vegas
00:37:08.000 : :Shortcut
00:43:51.000 : :Boyfriend Problems
00:49:37.000 : :A Bus Load Of Lucys
00:57:23.000 : :Cow Crossing
01:07:13.000 : :A Broken Heart
01:15:52.000 : :Land Speed Record
01:20:49.000 : :Monster Truck Jump
01:28:17.000 : :Finish Line?
01:35:12.000 : :Generous Contributions
01:43:02.000 : :Stage Diving

Скриншоты

--
[Профиль] [ЛС]
Показать сообщения:    

Текущее время: Сегодня 01:44

Часовой пояс: GMT



Вы не можете начинать темы
Вы не можете отвечать на сообщения
Вы не можете редактировать свои сообщения
Вы не можете удалять свои сообщения
Вы не можете голосовать в опросах
Вы не можете прикреплять файлы к сообщениям
Вы не можете скачивать файлы