Крысиные бега / Rat Race (Джерри Цукер)[2001, комедия,приключения, WEB-DL] 1080p | D, P, A

 
Автор Сообщение

sergej644 ®

Пол:

Стаж: 4 года 11 месяцев

Сообщений: 6046

Откуда: Soviet Union



Награды: Нет

Торрент-статистика

Создавать темы 24-Май-2015 20:43

[Цитировать]

--Крысиные бега / Rat Race
Информация о фильме
Название: Крысиные бега
Оригинальное название: Rat Race
Год выхода: 2001
Жанр: комедия, приключения
Режиссер: Джерри Цукер
В ролях: Роуэн Эткинсон, Кьюба Гудинг мл., Джон Ловиц, Джон Клиз, Вупи Голдберг, Сет Грин, Брекин Мейер, Эми Смарт, Винс Вьелуф, Ланей Чэпман
О фильме:
Владелец крупнейшего казино Лас-Вегаса решает, что его самым богатым клиентам нужно нечто особенное. Он готовит для них нелегальный тотализатор — «Крысиные бега». Участники забега — обычные люди, случайно выбранные из толпы.
Они получают шанс разбогатеть: кто первым доберется из Лас-Вегаса до захолустного городка Силвер-сити, тот получит 2 млн.$, спрятанных в ячейке камеры хранения. Никто из соискателей и не догадывается, что за каждым их шагом следит хозяин казино и его клиенты, сделавшие собственные ставки на победителя…

Страна: Канада, США
Студия: Paramount Pictures, Zucker Productions
Продолжительность: 01:52:05
Перевод: Профессиональный (дублированный) + Профессиональный (многоголосый, закадровый) + Авторский (Андрей Гаврилов) + Авторский (Сергей Визгунов) + Авторский (Андрей Дольский)
Файл
Формат: Matroska
Видео: 1920x804 at 23.976 fps, MPEG-4 AVC, ~4700 kbps avg
Aудио#1: Russian: 48 kHz, AC3, 3/2 (L,C,R,l,r) + LFE ch, ~384.00 kbps avg |Дубляж|
Aудио#2: Russian: 48 kHz, AC3, 3/2 (L,C,R,l,r) + LFE ch, ~384.00 kbps avg |Многоголосый закадровый|
Аудио#3: Russian: 48 kHz, AC3, 2/0 (L,R) ch, ~192.00 kbps avg |Авторский, А. Гаврилов|
Аудио#4: Russian: 48 kHz, AC3, 2/0 (L,R) ch, ~192.00 kbps avg |Авторский, С.Визгунов|
Аудио#5: Russian: 48 kHz, AC3, 2/0 (L,R) ch, ~192.00 kbps avg |Авторский, А.Дольский|
Аудио#6: English: 48 kHz, AC3, 3/2 (L,C,R,l,r) + LFE ch, ~384.00 kbps avg
Субтитры: None

MI

General
Unique ID : 236948623058854879519510050987636865938 (0xB242A5146EEC098EBE8990A8E88ABB92)
Complete name : Rat Race (2001) 1080p WEB-DL DD5.1 H.264.mkv
Format : Matroska
Format version : Version 4 / Version 2
File size : 5.10 GiB
Duration : 1h 52mn
Overall bit rate : 6 510 Kbps
Encoded date : UTC 2013-01-24 16:02:21
Writing application : mkvmerge v6.0.0 ('Coming Up For Air') built on Jan 20 2013 09:52:00
Writing library : libebml v1.3.0 + libmatroska v1.4.0
Video
ID : 1
Format : AVC
Format/Info : Advanced Video Codec
Format profile : High@L4.0
Format settings, CABAC : Yes
Format settings, ReFrames : 5 frames
Codec ID : V_MPEG4/ISO/AVC
Duration : 1h 52mn
Bit rate : 4 653 Kbps
Width : 1 920 pixels
Height : 804 pixels
Display aspect ratio : 2.40:1
Frame rate mode : Constant
Frame rate : 23.976 fps
Color space : YUV
Chroma subsampling : 4:2:0
Bit depth : 8 bits
Scan type : Progressive
Bits/(Pixel*Frame) : 0.126
Stream size : 3.64 GiB (71%)
Language : English
Default : Yes
Forced : No
Color primaries : BT.709
Transfer characteristics : BT.709
Matrix coefficients : BT.709
Color range : Limited
Audio #1
ID : 2
Format : AC-3
Format/Info : Audio Coding 3
Mode extension : CM (complete main)
Format settings, Endianness : Big
Codec ID : A_AC3
Duration : 1h 52mn
Bit rate mode : Constant
Bit rate : 384 Kbps
Channel(s) : 6 channels
Channel positions : Front: L C R, Side: L R, LFE
Sampling rate : 48.0 KHz
Bit depth : 16 bits
Compression mode : Lossy
Stream size : 308 MiB (6%)
Title : AC3 5.1 Dubl.
Language : Russian
Default : Yes
Forced : No
Audio #2
ID : 3
Format : AC-3
Format/Info : Audio Coding 3
Mode extension : CM (complete main)
Format settings, Endianness : Big
Codec ID : A_AC3
Duration : 1h 52mn
Bit rate mode : Constant
Bit rate : 384 Kbps
Channel(s) : 6 channels
Channel positions : Front: L C R, Side: L R, LFE
Sampling rate : 48.0 KHz
Bit depth : 16 bits
Compression mode : Lossy
Stream size : 308 MiB (6%)
Title : AC3 5.1 Mnog.
Language : Russian
Default : No
Forced : No
Audio #3
ID : 4
Format : AC-3
Format/Info : Audio Coding 3
Mode extension : CM (complete main)
Format settings, Endianness : Big
Codec ID : A_AC3
Duration : 1h 52mn
Bit rate mode : Constant
Bit rate : 192 Kbps
Channel(s) : 2 channels
Channel positions : Front: L R
Sampling rate : 48.0 KHz
Bit depth : 16 bits
Compression mode : Lossy
Stream size : 154 MiB (3%)
Title : AC3 2.0 Gavr.
Language : Russian
Default : No
Forced : No
Audio #4
ID : 5
Format : AC-3
Format/Info : Audio Coding 3
Mode extension : CM (complete main)
Format settings, Endianness : Big
Codec ID : A_AC3
Duration : 1h 52mn
Bit rate mode : Constant
Bit rate : 192 Kbps
Channel(s) : 2 channels
Channel positions : Front: L R
Sampling rate : 48.0 KHz
Bit depth : 16 bits
Compression mode : Lossy
Stream size : 154 MiB (3%)
Title : AC3 2.0 Vizg.
Language : Russian
Default : No
Forced : No
Audio #5
ID : 6
Format : AC-3
Format/Info : Audio Coding 3
Mode extension : CM (complete main)
Format settings, Endianness : Big
Codec ID : A_AC3
Duration : 1h 52mn
Bit rate mode : Constant
Bit rate : 192 Kbps
Channel(s) : 2 channels
Channel positions : Front: L R
Sampling rate : 48.0 KHz
Bit depth : 16 bits
Compression mode : Lossy
Stream size : 154 MiB (3%)
Title : AC3 2.0 Dolsk.
Language : Russian
Default : No
Forced : No
Audio #6
ID : 7
Format : AC-3
Format/Info : Audio Coding 3
Mode extension : CM (complete main)
Format settings, Endianness : Big
Codec ID : A_AC3
Duration : 1h 52mn
Bit rate mode : Constant
Bit rate : 384 Kbps
Channel(s) : 6 channels
Channel positions : Front: L C R, Side: L R, LFE
Sampling rate : 48.0 KHz
Bit depth : 16 bits
Compression mode : Lossy
Stream size : 308 MiB (6%)
Title : AC3 5.1
Language : English
Default : No
Forced : No
Menu
00:00:00.000 : en:Stupid Mistakes
00:07:29.000 : en:You're A Winner
00:14:24.000 : en:A Race For Money
00:22:33.000 : en:Flying Out Of Vegas
00:30:18.000 : en:Driving Out Of Vegas
00:37:08.000 : en:Shortcut
00:43:51.000 : en:Boyfriend Problems
00:49:37.000 : en:A Bus Load Of Lucys
00:57:23.000 : en:Cow Crossing
01:07:13.000 : en:A Broken Heart
01:15:52.000 : en:Land Speed Record
01:20:49.000 : en:Monster Truck Jump
01:28:17.000 : en:Finish Line?
01:35:12.000 : en:Generous Contributions
01:43:02.000 : en:Stage Diving

Скриншоты

[Профиль] [ЛС]

Создавать темы 06-Авг-2015 22:31 (спустя 2 месяца 13 дней)

Топик был перенесен из форума Фильмы до 2014 года в форум Фильмы до 2012 года
sergej644
 
Показать сообщения:    

Текущее время: Сегодня 08:17

Часовой пояс: GMT



Вы не можете начинать темы
Вы не можете отвечать на сообщения
Вы не можете редактировать свои сообщения
Вы не можете удалять свои сообщения
Вы не можете голосовать в опросах
Вы не можете прикреплять файлы к сообщениям
Вы не можете скачивать файлы