Крыса / Ratter (2015) WEB-DL 1080p | iTunes

 
Автор Сообщение

BOSS ®

Пол:

Стаж: 2 года 1 месяц

Сообщений: 3719

Откуда: ODESSA



Награды: 20 (Подробнее)

Mega Seeder 2 (Количество: 1) Mega Releaser 3 (Количество: 1) Top Keeper 3 (Количество: 1)
Торрент-статистика

Создавать темы 01-Мар-2016 05:33

[Цитировать]

Информация о фильме
Название: Крыса
Оригинальное название: Ratter
Год выпуска: 2015
Страна: США
Жанр: ужасы, триллер, драма-Перевод: Профессиональный многоголосый [iTunes]
Субтитры: русские (iTunes), английские
Продолжительность: 01:20:21-Режиссер: Branden Kramer
В ролях: Эшли Бенсон (Emma), Мэтт МакГорри (Michael), Кайли Вернофф (Emma's Mom), Ребекка Наоми Джонс (Nicole), Алекс Кранмер (Professor), Майкл Уильям Фриман (Alex), Джон Андерсон (Kent), Карл Глусман (Brent), Джереми Фиорентино (Officer Rodriguez), Джон Басс (Greg), Дилан Чэлфи (Stalker), Тали Кастер (Alissa)-Описание:
За Эммой, аспиранткой живущей одной в Нью-Йорке, начинает следить маньяк, который взламывает всю её окружающую технику - ноутбук, сотовый телефон и другие веб-устройства. Эта одержимость продолжает расти, после того как хакер записывает самые интимные моменты Эммы. Когда ощущений от просмотра не достаточно, ситуация обостряется до опасного и ужасающего уровня.-Рейтинг:

MPAA: R - Лицам до 17 лет обязательно присутствие взрослого-Качество: WEB-DL 1080p
Формат: MKV
Видео: AVC, 1920x1034 (1.857), 4902 kbps, 23,976 fps, 0,103 bpp
Аудио №1: русский / AC3 / 5.1 / 48 kHz / 384 kbps / 16 bit |iTunes|
Аудио №2: английский / AC3 / 5.1 / 48 kHz / 384 kbps / 16 bit
Навигация по главам: есть
Семпл-

ОтчетМедиаИнфо

General
Unique ID : 204017934851347261410587466848456010090 (0x997C6CCC4A5D1EF0BFC9C21275D1E96A)
Complete name : H:Ratter.2015.WEB-DL.1080p .mkv
Format : Matroska
Format version : Version 4 / Version 2
File size : 3.25 GiB
Duration : 1h 20mn
Overall bit rate : 5 785 Kbps
Movie name : Ratter (2015) WEB-DL 1080p
Encoded date : UTC 2016-02-29 18:16:54
Writing application : mkvmerge v8.9.0 ('Father Daughter') 64bit
Writing library : libebml v1.3.3 + libmatroska v1.4.4
DURATION : 01:17:05.287000000
NUMBER_OF_FRAMES : 717
NUMBER_OF_BYTES : 42041
_STATISTICS_WRITING_APP : mkvmerge v8.9.0 ('Father Daughter') 64bit
_STATISTICS_WRITING_DATE_UTC : 2016-02-29 18:16:54
_STATISTICS_TAGS : BPS DURATION NUMBER_OF_FRAMES NUMBER_OF_BYTES
Video
ID : 1
Format : AVC
Format/Info : Advanced Video Codec
Format profile : High@L4.0
Format settings, CABAC : Yes
Format settings, ReFrames : 4 frames
Codec ID : V_MPEG4/ISO/AVC
Duration : 1h 20mn
Bit rate : 4 902 Kbps
Width : 1 920 pixels
Height : 1 034 pixels
Display aspect ratio : 1.857
Frame rate : 23.976 fps
Color space : YUV
Chroma subsampling : 4:2:0
Bit depth : 8 bits
Scan type : Progressive
Bits/(Pixel*Frame) : 0.103
Stream size : 2.75 GiB (85%)
Title : Ratter.2016.1080p.WEB-DL.DD5.1.H264-FGT
Language : English
Default : Yes
Forced : No
Color primaries : BT.709-5, BT.1361, IEC 61966-2-4, SMPTE RP177
Transfer characteristics : BT.709-5, BT.1361
Matrix coefficients : BT.709-5, BT.1361, IEC 61966-2-4 709, SMPTE RP177
Audio #1
ID : 2
Format : AC-3
Format/Info : Audio Coding 3
Mode extension : CM (complete main)
Codec ID : A_AC3
Duration : 1h 20mn
Bit rate mode : Constant
Bit rate : 384 Kbps
Channel(s) : 6 channels
Channel positions : Front: L C R, Side: L R, LFE
Sampling rate : 48.0 KHz
Bit depth : 16 bits
Compression mode : Lossy
Stream size : 221 MiB (7%)
Title : iTunes
Language : Russian
Default : Yes
Forced : No
Audio #2
ID : 3
Format : AC-3
Format/Info : Audio Coding 3
Mode extension : CM (complete main)
Codec ID : A_AC3
Duration : 1h 20mn
Bit rate mode : Constant
Bit rate : 384 Kbps
Channel(s) : 6 channels
Channel positions : Front: L C R, Side: L R, LFE
Sampling rate : 48.0 KHz
Bit depth : 16 bits
Compression mode : Lossy
Stream size : 221 MiB (7%)
Title : Оригинал
Language : English
Default : No
Forced : No
Text #1
ID : 4
Format : UTF-8
Codec ID : S_TEXT/UTF8
Codec ID/Info : UTF-8 Plain Text
Title : iTunes
Language : Russian
Default : No
Forced : No
Text #2
ID : 5
Format : UTF-8
Codec ID : S_TEXT/UTF8
Codec ID/Info : UTF-8 Plain Text
Language : English
Default : No
Forced : No
Menu
00:00:00.000 : en:1
00:05:08.000 : en:2
00:09:47.000 : en:3
00:14:38.000 : en:4
00:17:52.000 : en:5
00:21:21.000 : en:6
00:24:41.000 : en:7
00:31:07.000 : en:8
00:35:16.000 : en:9
00:43:05.000 : en:10
00:49:37.000 : en:11
00:54:08.000 : en:12
00:58:01.000 : en:13
01:01:48.000 : en:14
01:07:19.000 : en:15
01:10:58.000 : en:16

Скриншоты

[Профиль] [ЛС]
Кто просматривает тему:

Форум Тема Автор Размер
Зарубежные сериалы Вор периода Эдо по кличке Крыса / Nezumi, Edo wo Hashiru / Nezumi-Kozo, Running Around Edo [01-02 из 09] (2014) HDTV 720p от BTT-TEAM | L1 Белочка 2.33 GB
Зарубежные сериалы Вор периода Эдо по кличке Крыса / Nezumi, Edo wo Hashiru / Nezumi-Kozo, Running Around Edo [01-04 из 09] (2014) HDTV 720p от BTT-TEAM | L1 Белочка 4.66 GB
Зарубежные сериалы Вор периода Эдо по кличке Крыса / Nezumi, Edo wo Hashiru / Nezumi-Kozo, Running Around Edo [01-05 из 09] (2014) HDTV 720p от BTT-TEAM | L1 Белочка 5.82 GB
Зарубежные сериалы Вор периода Эдо по кличке Крыса / Nezumi, Edo wo Hashiru / Nezumi-Kozo, Running Around Edo [1 из 9] (2014) HDTV 720p от BTT-TEAM | L1 Белочка 1.16 GB
Отечественные мультфильмы Крыса (Александр Андраникян) [1988, Рисованный мультфильм, WEBRip][Арменфильм] TorrentFilm 157 MB
Фильмы (HD Rips | 720p, 1080p) Крыса / Ratter (2015) WEB-DL 720p | iTunes BOSS 2.49 GB
Фильмы 2015 года Крыса / Ratter (2015) WEB-DLRip | iTunes BOSS 1.37 GB
R.G.TorrentFilm Video Крыса / Крысолов / Ratter (Брендан Крамер / Branden Kramer) [2015, США, Ужасы, триллер, драма, WEB-DLRip] MVO (iTunes) Один 777 746 MB
Показать сообщения:    

Текущее время: Сегодня 00:49

Часовой пояс: GMT



Вы не можете начинать темы
Вы не можете отвечать на сообщения
Вы не можете редактировать свои сообщения
Вы не можете удалять свои сообщения
Вы не можете голосовать в опросах
Вы не можете прикреплять файлы к сообщениям
Вы не можете скачивать файлы