Крым (2017) TS

 
Автор Сообщение

BOSS ®

Пол:

Стаж: 3 года

Сообщений: 7612

Откуда: ODESSA



Награды: 22 (Подробнее)

Mega Releaser 1 (Количество: 1) Top Seeder 2 (Количество: 1) Top Keeper 2 (Количество: 1)
Торрент-статистика

Создавать темы 05-Окт-2017 16:47

[Цитировать]

Информация о фильме
Название: Крым
Год выхода: 2017
Жанр: драма, боевик
Режиссер: Алексей Пиманов
В ролях: Роман Курцын, Евгения Лапова, Павел Крайнов, Павел Трубинер, Борис Щербаков, Елена Котельникова, Геннадий Яковлев, Алексей Комашко, Никита Зверев, Игорь Буяновер
Слоган: «С любимыми не расставайтесь»
О фильме: История о любви, вере и чести, о силе духа и настоящей дружбе на фоне реальных событий крымской весны 2014 года.
Судьба свела их в Крыму близ древнего города Мангуп-Кале. Это была любовь с первого взгляда… В непростые дни исторических перемен они должны сохранить свою жизнь и любовь.


Страна: Россия / Пиманов и партнеры
Продолжительность: 01:34:30
Перевод: не требуется
Файл
Качество: TS
Формат: AVI
Видео: XviD, 1812 Кбит/сек, 720x304
Звук: AC3, 2 ch, 384 Кбит/сек
Субтитры: нет

Релиз от:

MI

General
Complete name : Крым (2017).avi
Format : AVI
Format/Info : Audio Video Interleave
File size : 1.46 GiB
Duration : 1h 34mn
Overall bit rate : 2 208 Kbps
Writing application : Lavf57.71.100
Comment : Rip by Basma4i
Video
ID : 0
Format : MPEG-4 Visual
Format profile : Advanced Simple@L5
Format settings, BVOP : No
Format settings, QPel : No
Format settings, GMC : No warppoints
Format settings, Matrix : Default (H.263)
Codec ID : XVID
Codec ID/Hint : XviD
Duration : 1h 34mn
Bit rate : 1 728 Kbps
Width : 720 pixels
Height : 304 pixels
Display aspect ratio : 2.40:1
Frame rate : 23.976 fps
Color space : YUV
Chroma subsampling : 4:2:0
Bit depth : 8 bits
Scan type : Progressive
Compression mode : Lossy
Bits/(Pixel*Frame) : 0.329
Stream size : 1.14 GiB (78%)
Title : Rus
Writing library : XviD 67
Audio
ID : 1
Format : AC-3
Format/Info : Audio Coding 3
Mode extension : CM (complete main)
Format settings, Endianness : Big
Codec ID : 2000
Duration : 1h 34mn
Bit rate mode : Constant
Bit rate : 384 Kbps
Channel(s) : 2 channels
Channel positions : Front: L R
Sampling rate : 48.0 KHz
Bit depth : 16 bits
Compression mode : Lossy
Stream size : 260 MiB (17%)
Alignment : Aligned on interleaves
Title : Rus
[Профиль] [ЛС]
Показать сообщения:    

Текущее время: Сегодня 23:15

Часовой пояс: GMT



Вы не можете начинать темы
Вы не можете отвечать на сообщения
Вы не можете редактировать свои сообщения
Вы не можете удалять свои сообщения
Вы не можете голосовать в опросах
Вы не можете прикреплять файлы к сообщениям
Вы не можете скачивать файлы