Крым. Путь на Родину (Андрей Кондрашов (Сергей Краус)) [2015, Документальный, HDTV 1080i]

 
Автор Сообщение

TorrentFilm ®

Пол:

Стаж: 2 года

Сообщений: 7741



Награды: Нет

Торрент-статистика

Создавать темы 07-Апр-2015 00:01

[Цитировать]

Крым. Путь на Родину
Год выпуска: 2015
Страна: Россия
Жанр: Документальный
Продолжительность: 02:24:48
Перевод: Не требуется
Режиссер: Андрей Кондрашов
Режиссер-постановщик: Сергей Краус
В ролях: Владимир Путин
Описание:Полнометражная документальная лента была задумана, чтобы сохранить для истории каждый значимый эпизод событий, происходивших в Крыму весной 2014 года. Съемки продолжались 8 месяцев и охватили Севастополь и Форос, Симферополь и Керчь, Ялту и Бахчисарай; Феодосию, Джанкой, Алушту и еще десяток населенных пунктов Крыма. По горячим следам был записан большой разговор с Владимиром Путиным, а потом еще больше полусотни интервью с участниками и свидетелями Крымской весны. С чего все началось? Как Россия получила официальное обращение от легитимного президента Украины с просьбой спасти ему жизнь?

Содержание:

Это была операция, аналогов которой не было в новейшей мировой истории. Все подробности того, как за несколько километров до засады с пулеметами был тайно эвакуирован Виктор Янукович, спустя год открывает сам Владимир Путин, и в фильме этому посвящена детальная реконструкция.
"Это была ночь с 22 на 23 февраля, закончили около 7 часов утра, и я всех отпустил и пошел спать в 7 утра. И, расставаясь, не скрою, расставаясь, перед тем как все разошлись, я всем моим коллегам, а их было четверо, сказал, что ситуация развернулась таким образом на Украине, что мы вынуждены начать работу по возврату Крыма в состав России. Потому что мы не можем бросить эту территорию и людей, которые там проживают, на произвол судьбы, под каток националистов. И поставил определенные задачи, сказал, что и как мы должны делать, но сразу же подчеркнул, что мы будем делать это только в том случае, если будем абсолютно убеждены в том, что этого хотят сами люди, которые проживают в Крыму", — рассказал в интервью Владимир Путин.
Поэтому первое распоряжение, которое было отдано президентом, касалось не спецслужб и минобороны, а собственной Администрации, специалисты которой совместно с социологами провели в Крыму закрытый опрос. На какие вопросы отвечали крымчане, если даже слово "референдум" еще не фигурировало?
"Выяснилось, что желающих присоединиться к России там 75% от общего состава. Вы понимаете, был проведен закрытый опрос, вне контекста возможного присоединения. Для меня стало очевидным, что если мы подойдем к этому, то уровень или количество тех, кто бы хотел, чтобы это историческое событие произошло, будет гораздо выше", — отметил российский президент.
Корсуньский погром. Сколько людей погибло и пропало без вести, после того как украинские националисты напали на автоколонну крымчан и сожгли их автобусы? Как формировалось ополчение Крыма. Кто был его лидером?
Как впервые появились в Крыму вежливые люди? Кто это был, чьим приказом они были отправлены на полуостров? И сколько времени заняла спецоперация, в результате которой в ночь на 27 февраля были взяты под охрану все ключевые здания органов власти?
"Конечная цель была не в захвате Крыма и не в какой-то аннексии. Конечная цель была в том, чтобы дать возможность людям выразить свое мнение по поводу того, как они хотят жить дальше. Говорю Вам совершенно откровенно, честно говорю Вам. Про себя подумал, если люди так захотят, значит, так тому и быть. Значит, они будут там с большей автономией, с какими-то правами, но в составе Украинского государства. Пусть так и будет. Но если они захотят по-другому, то мы не можем их бросить! Мы результаты референдума знаем. И мы поступили так, как были обязаны поступить!", — пояснил российский лидер.
Как умудрились без кровопролития разоружить 193 воинские части Украины в Крыму? В чем был секрет Командующего Черноморским Флотом, который приглашал украинских коллег на переговоры исключительно в Херсонес? Как удалось закрыть в бухтах корабли украинских ВМС? Но почему все-таки не обошлось без штурма и стрельбы в Феодосии?
Как Россия соприкоснулась в Крыму с подразделениями НАТО, а в море с военно-морскими силами ВМС? О чем Владимир Путин говорил в те дни с Бараком Обамой? И как попали в Крым наши береговые ракетные комплексы "Бастион", внезапно изменившие весь ход событий? Два откровенных интервью Владимира Путина и все эпизоды крымской весны, которые определили ход новейшей истории России - смотрите в фильме "Крым. Путь на Родину".
Качество: HDTV 1080i
Формат: TS
Видео кодек: H.264
Аудио кодек: MPEG Audio. AC-3
Видео: MPEG4 Video (H264) 1920x1080, ~ 8269 Кбит/сек, 25.00fps 0.16 bit/pixel
Аудио: MP2, 2 канала, 48,0 КГц, ~224 kbps
Раздача группы:
Отдельное спасибо olegka7373 за предоставление материала.
Отдельная громадная благодарность Media-Art-Club за созданный постер к раздаче.

MI

ОбщееИдентификатор : 1 (0x1)Полное имя : D:\Запись\Krym. Put' na rodinu.HDTV(1080i).GeneralFilm.tsФормат : MPEG-TSРазмер файла : 9,04 ГбайтПродолжительность : 2 ч. 24 м.Режим общего битрейта : ПеременныйОбщий поток : 8936 Кбит/сек
ВидеоИдентификатор : 41 (0x29)Идентификатор меню : 60 (0x3C)Формат : AVCФормат/Информация : Advanced Video CodecПрофиль формата : High@L4.0Параметр CABAC формата : ДаПараметр ReFrames формата : 3 кадраИдентификатор кодека : 27Продолжительность : 2 ч. 24 м.Битрейт : 8269 Кбит/секШирина : 1920 пикселейВысота : 1080 пикселейСоотношение сторон : 16:9Частота кадров : 25,000 кадров/секСтандарт вещания : ComponentЦветовое пространство : YUVСубдискретизация насыщенности : 4:2:0Битовая глубина : 8 битТип развёртки : ЧересстрочнаяПорядок развёртки : Верхнее поле первоеБит/(Пиксели*Кадры) : 0.160Размер потока : 8,37 Гбайт (93%)Основные цвета : BT.709Характеристики трансфера : BT.709Коэффициенты матрицы : BT.709
АудиоИдентификатор : 44 (0x2C)Идентификатор меню : 60 (0x3C)Формат : MPEG AudioВерсия формата : Version 1Профиль формата : Layer 2Идентификатор кодека : 3Продолжительность : 2 ч. 24 м.Вид битрейта : ПостоянныйБитрейт : 224 Кбит/секКаналы : 2 каналаЧастота : 48,0 КГцМетод сжатия : С потерямиЗадержка видео : -120 мс.Размер потока : 232 Мбайт (3%)Язык : Russian

Скриншоты

[Профиль] [ЛС]
Показать сообщения:    

Текущее время: Сегодня 22:32

Часовой пояс: GMT



Вы не можете начинать темы
Вы не можете отвечать на сообщения
Вы не можете редактировать свои сообщения
Вы не можете удалять свои сообщения
Вы не можете голосовать в опросах
Вы не можете прикреплять файлы к сообщениям
Вы не можете скачивать файлы