Крым. Путь на родину. Фильм Андрея Кондрашова (Сергей Краус) / Россия HD [15.03.2015, Документальный, H.264, HDTVRip 720p]

 
Автор Сообщение

TorrentFilm ®

Пол:

Стаж: 2 года

Сообщений: 7741



Награды: Нет

Торрент-статистика

Создавать темы 28-Мар-2015 00:01

[Цитировать]

Крым. Путь на родину. Фильм Андрея Кондрашова
Дата/Год выпуска: 15.03.2015
Страна: Россия
Автор: Андрей Кондрашов
Режиссер-постановщик: Сергей Краус
Жанр: Документальный
Продолжительность: 02:24:00
Описание: Полнометражная документальная лента была задумана, чтобы сохранить для истории каждый значимый эпизод событий, происходивших в Крыму весной 2014 года. Съемки продолжались 8 месяцев и охватили Севастополь и Форос, Симферополь и Керчь, Ялту и Бахчисарай; Феодосию, Джанкой, Алушту и еще десяток населенных пунктов Крыма. По горячим следам был записан большой разговор с Владимиром Путиным, а потом еще больше полусотни интервью с участниками и свидетелями Крымской весны. С чего все началось? Как Россия получила официальное обращение от легитимного президента Украины с просьбой спасти ему жизнь?

Содержание

Это была операция, аналогов которой не было в новейшей мировой истории. Все подробности того, как за несколько километров до засады с пулеметами был тайно эвакуирован Виктор Янукович, спустя год открывает сам Владимир Путин, и в фильме этому посвящена детальная реконструкция.
"Это была ночь с 22 на 23 февраля, закончили около 7 часов утра, и я всех отпустил и пошел спать в 7 утра. И, расставаясь, не скрою, расставаясь, перед тем как все разошлись, я всем моим коллегам, а их было четверо, сказал, что ситуация развернулась таким образом на Украине, что мы вынуждены начать работу по возврату Крыма в состав России. Потому что мы не можем бросить эту территорию и людей, которые там проживают, на произвол судьбы, под каток националистов. И поставил определенные задачи, сказал, что и как мы должны делать, но сразу же подчеркнул, что мы будем делать это только в том случае, если будем абсолютно убеждены в том, что этого хотят сами люди, которые проживают в Крыму", — рассказал в интервью Владимир Путин.
Поэтому первое распоряжение, которое было отдано президентом, касалось не спецслужб и минобороны, а собственной Администрации, специалисты которой совместно с социологами провели в Крыму закрытый опрос. На какие вопросы отвечали крымчане, если даже слово "референдум" еще не фигурировало?
"Выяснилось, что желающих присоединиться к России там 75% от общего состава. Вы понимаете, был проведен закрытый опрос, вне контекста возможного присоединения. Для меня стало очевидным, что если мы подойдем к этому, то уровень или количество тех, кто бы хотел, чтобы это историческое событие произошло, будет гораздо выше", — отметил российский президент.
Корсуньский погром. Сколько людей погибло и пропало без вести, после того как украинские националисты напали на автоколонну крымчан и сожгли их автобусы? Как формировалось ополчение Крыма. Кто был его лидером?
Как впервые появились в Крыму вежливые люди? Кто это был, чьим приказом они были отправлены на полуостров? И сколько времени заняла спецоперация, в результате которой в ночь на 27 февраля были взяты под охрану все ключевые здания органов власти?
"Конечная цель была не в захвате Крыма и не в какой-то аннексии. Конечная цель была в том, чтобы дать возможность людям выразить свое мнение по поводу того, как они хотят жить дальше. Говорю Вам совершенно откровенно, честно говорю Вам. Про себя подумал, если люди так захотят, значит, так тому и быть. Значит, они будут там с большей автономией, с какими-то правами, но в составе Украинского государства. Пусть так и будет. Но если они захотят по-другому, то мы не можем их бросить! Мы результаты референдума знаем. И мы поступили так, как были обязаны поступить!", — пояснил российский лидер.
Как умудрились без кровопролития разоружить 193 воинские части Украины в Крыму? В чем был секрет Командующего Черноморским Флотом, который приглашал украинских коллег на переговоры исключительно в Херсонес? Как удалось закрыть в бухтах корабли украинских ВМС? Но почему все-таки не обошлось без штурма и стрельбы в Феодосии?
Как Россия соприкоснулась в Крыму с подразделениями НАТО, а в море с военно-морскими силами ВМС? О чем Владимир Путин говорил в те дни с Бараком Обамой? И как попали в Крым наши береговые ракетные комплексы "Бастион", внезапно изменившие весь ход событий? Два откровенных интервью Владимира Путина и все эпизоды крымской весны, которые определили ход новейшей истории России - смотрите в фильме "Крым. Путь на Родину".
Качество: HDTVRip 720p
Формат: mkv
Видео кодек: H.264
Аудио кодек: MP2
Видео: 1280x720p, 25 fps, ~ 4600kbps
Аудио: 48 kHz, 2 ch, ~192.00 kbps

MediaInfo

Общее
Уникальный идентификатор : 211993336284033457855546909500318967449 (0x9F7C6E7296EAC889ADE5992A96686699)
Полное имя : H:\трекер\Krym.Put.na.rodinu.HDTVRip.720p.mkv
Формат : Matroska
Версия формата : Version 4 / Version 2
Размер файла : 4,85 Гбайт
Продолжительность : 2 ч. 24 м.
Общий поток : 4794 Кбит/сек
Название фильма : Крым. Путь на Родину (HDTVRip 720p) -B@ZILI0-
Дата кодирования : UTC 2015-03-16 19:04:42
Программа кодирования : mkvmerge v7.7.0 ('Six Voices') 64bit built on Feb 28 2015 23:39:33
Библиотека кодирования : libebml v1.3.1 + libmatroska v1.4.2
Attachements : cover.jpg
DURATION : 02:24:52.752000000
NUMBER_OF_FRAMES : 362198
NUMBER_OF_BYTES : 208626048
_STATISTICS_WRITING_APP : mkvmerge v7.7.0 ('Six Voices') 64bit built on Feb 28 2015 23:39:33
_STATISTICS_WRITING_DATE_UTC : 2015-03-16 19:04:42
_STATISTICS_TAGS : BPS DURATION NUMBER_OF_FRAMES NUMBER_OF_BYTES
Видео
Идентификатор : 1
Формат : AVC
Формат/Информация : Advanced Video Codec
Профиль формата : High@L4.0
Параметр CABAC формата : Да
Параметр ReFrames формата : 9 кадров
Идентификатор кодека : V_MPEG4/ISO/AVC
Продолжительность : 2 ч. 24 м.
Битрейт : 4600 Кбит/сек
Ширина : 1280 пикселей
Высота : 720 пикселей
Соотношение сторон : 16:9
Режим частоты кадров : Постоянный
Частота кадров : 25,000 кадров/сек
Цветовое пространство : YUV
Субдискретизация насыщенности : 4:2:0
Битовая глубина : 8 бит
Тип развёртки : Прогрессивная
Бит/(Пиксели*Кадры) : 0.200
Размер потока : 4,56 Гбайт (94%)
Заголовок : Крым. Путь на Родину (HDTVRip 720p) -B@ZILI0-
Библиотека кодирования : x264 core 146 r2538 121396c
Настройки программы : cabac=1 / ref=9 / deblock=1:-1:-1 / analyse=0x3:0x133 / me=umh / subme=11 / psy=1 / psy_rd=1.05:0.00 / mixed_ref=1 / me_range=32 / chroma_me=1 / trellis=2 / 8x8dct=1 / cqm=0 / deadzone=21,11 / fast_pskip=0 / chroma_qp_offset=-2 / threads=12 / lookahead_threads=2 / sliced_threads=0 / nr=0 / decimate=0 / interlaced=0 / bluray_compat=0 / constrained_intra=0 / bframes=8 / b_pyramid=2 / b_adapt=2 / b_bias=0 / direct=3 / weightb=1 / open_gop=0 / weightp=2 / keyint=250 / keyint_min=25 / scenecut=40 / intra_refresh=0 / rc=2pass / mbtree=0 / bitrate=4600 / ratetol=1.0 / qcomp=0.65 / qpmin=0 / qpmax=69 / qpstep=4 / cplxblur=20.0 / qblur=0.5 / ip_ratio=1.40 / pb_ratio=1.30 / aq=1:1.00
Язык : Russian
Default : Да
Forced : Нет
DURATION : 02:24:52.760000000
NUMBER_OF_FRAMES : 217319
NUMBER_OF_BYTES : 4998390776
_STATISTICS_WRITING_APP : mkvmerge v7.7.0 ('Six Voices') 64bit built on Feb 28 2015 23:39:33
_STATISTICS_WRITING_DATE_UTC : 2015-03-16 19:04:42
_STATISTICS_TAGS : BPS DURATION NUMBER_OF_FRAMES NUMBER_OF_BYTES
Аудио
Идентификатор : 2
Формат : MPEG Audio
Версия формата : Version 1
Профиль формата : Layer 2
Идентификатор кодека : A_MPEG/L2
Идентификатор кодека/Подсказка : MP2
Продолжительность : 2 ч. 24 м.
Вид битрейта : Постоянный
Битрейт : 192 Кбит/сек
Каналы : 2 канала
Частота : 48,0 КГц
Метод сжатия : С потерями
Размер потока : 199 Мбайт (4%)
Язык : Russian
Default : Да
Forced : Нет

Скриншоты

[Профиль] [ЛС]
Показать сообщения:    

Текущее время: Сегодня 08:31

Часовой пояс: GMT



Вы не можете начинать темы
Вы не можете отвечать на сообщения
Вы не можете редактировать свои сообщения
Вы не можете удалять свои сообщения
Вы не можете голосовать в опросах
Вы не можете прикреплять файлы к сообщениям
Вы не можете скачивать файлы