Крымская конференция (Илья Копалин) [1945, документальный] SATRip

 
Автор Сообщение

BOSS ®

Пол:

Стаж: 2 года 1 месяц

Сообщений: 3744

Откуда: ODESSA



Награды: 20 (Подробнее)

Top Seeder 5 (Количество: 1) Mega Releaser 1 (Количество: 1) За внесенный вклад в развитие сайта (Количество: 1)
Торрент-статистика

Создавать темы 22-Апр-2015 19:02

[Цитировать]

Страна: СССР
Производство: Центральная студия документальных фильмов
Жанр: документальный
Год выпуска: 1945
Продолжительность: 0:46:51
Перевод: Не требуется
Cубтитры: нет
Оригинальная аудиодорожка: русский
Режиссер: Илья Копалин
Описание:
ЯЛТИНСКАЯ (КРЫМСКАЯ) КОНФЕРЕНЦИЯ руководителей трех держав — союзников по Антигитлеровской коалиции: от СССР — И. В. Сталин, США — Ф. Д. Рузвельт, Великобритании — У. Черчилль — состоялась 4—11 февраля 1945 г. в Ялте (Крым) на завершающем этапе Второй мировой войны 1939-1945 гг.
Решались военные вопросы и проблема послевоенного устройства Европы. Участники в совместном коммюнике заявили о том, что они определили свои планы в целях окончательного разгрома общего врага и детально спланировали сроки и вопросы координации мощных ударов, которые будут нанесены Германии; договорились об общей политике и планах обращения с нею после ее полного поражения. Германия делилась союзниками на четыре оккупационные зоны — английскую, американскую, советскую и французскую. Предусматривалось установление союзнической администрации и контроля, осуществляемого специально создаваемым органом в составе главнокомандующих трех держав с местом пребывания в Берлине. Требование СССР о немецких репарациях в размере 10 млрд долл. было признано законным. Они должны были поступать в форме вывоза товаров и капиталов, использования людской силы. (Это решение конференции полностью не было выполнено. Кроме того, в СССР вывозилась морально и физически устаревшая техника, что помешало модернизации советской экономики.)- -Источник: DVB
Качество видео: SATRip
Формат видео: AVI
Видео: 704x528 (4:3), 25 fps, XviD ~ 2020 kbps avg, 0.217 bit/pixel
Аудио: 48 kHz, Dolby Digital AC3 2.0, 192 kbps

MediaInfo

Общее
Полное имя : Krymskaya.konferenciya.1945.SATRip_[New-team]_by_AVP_Studio.avi
Формат : AVI
Формат/Информация : Audio Video Interleave
Размер файла : 745 Мбайт
Продолжительность : 46 м.
Общий поток : 2222 Кбит/сек
Программа кодирования : VirtualDubModRus 1.5.10.2 (build 2542/release)
Библиотека кодирования : VirtualDubMod build 2542/release
Видео
Идентификатор : 0
Формат : MPEG-4 Visual
Профиль формата : Advanced Simple@L5
Параметр BVOP формата : 1
Параметр QPel формата : Нет
Параметр GMC формата : Без точки перехода
Параметр матрицы формата : Выборочная
Идентификатор кодека : XVID
Идентификатор кодека/Подсказка : XviD
Продолжительность : 46 м.
Битрейт : 2020 Кбит/сек
Ширина : 704 пикселя
Высота : 528 пикселей
Соотношение сторон : 4:3
Частота кадров : 25,000 кадров/сек
Цветовое пространство : YUV
Субдискретизация насыщенности : 4:2:0
Битовая глубина : 8 бит
Тип развёртки : Прогрессивная
Метод сжатия : С потерями
Бит/(Пиксели*Кадры) : 0.217
Размер потока : 677 Мбайт (91%)
Библиотека кодирования : XviD 73
Аудио
Идентификатор : 1
Формат : AC-3
Формат/Информация : Audio Coding 3
Расширение режима : CM (complete main)
Параметр Endianness формата : Big
Идентификатор кодека : 2000
Продолжительность : 46 м.
Вид битрейта : Постоянный
Битрейт : 192 Кбит/сек
Каналы : 2 канала
Расположение каналов : Front: L R
Частота : 48,0 КГц
Битовая глубина : 16 бит
Метод сжатия : С потерями
Размер потока : 64,3 Мбайт (9%)
Выравнивание : Разделение по промежуткам
Продолжительность промежутка : 40 мс. (1,00 видеокадр)
Время предзагрузки промежутка : 500 мс

Скриншоты

[Профиль] [ЛС]
Показать сообщения:    

Текущее время: Сегодня 08:01

Часовой пояс: GMT



Вы не можете начинать темы
Вы не можете отвечать на сообщения
Вы не можете редактировать свои сообщения
Вы не можете удалять свои сообщения
Вы не можете голосовать в опросах
Вы не можете прикреплять файлы к сообщениям
Вы не можете скачивать файлы