Крылья / Ночные стражи (2016) HDTVRip

 
Автор Сообщение

Шкипер ®

Пол:

Стаж: 1 год 7 месяцев

Сообщений: 52



Награды: Нет

Торрент-статистика

Создавать темы 30-Сен-2016 12:15

[Цитировать]

Информация о фильме
Название: Крылья
Оригинальное название Ночные стражи
Год выхода: 2016
Жанр: Фэнтези, боевик
Режиссер: Эмилис Веливис
В ролях: Иван Янковский, Любовь Аксёнова, Леонид Ярмольник, Михаил Евланов, Сабина Ахмедова, Константин Адаев, Юрий Ваксман, Алексей Дмитриев, Денис Бузин, Евгений Косырев
О фильме:
Оборотни, упыри и ведьмы — существуют. Если вы до сих пор не сталкивались с ними, то это заслуга отдела по надзору за представителями альтернативной жизни.
Обычный курьер случайно становится свидетелем зачистки нечисти в одном из столичных отелей, после чего получает новую работу.
Сотрудники отдела «Н» не бессмертны, но даже вампирам они не по зубам.

Страна: Россия
Студия: Марс Медиа Энтертейнмент
Продолжительность: 01:35:28
Перевод: Не требуется
Файл
Кодек: XviD
Качество: HDTVRip
Видео: 688x288 (2.39:1), 25 fps, XviD build 73 ~954 kbps avg, 0.19 bit/pixel
Звук: 48 kHz, MPEG Layer 3, 2 ch, ~128.00 kbps avg
Субтитры: Отсутствуют
Семпл

MI

General
Complete name : E:Изготовление рипаStragi.2016.HDTVrip by shkiper.avi
Format : AVI
Format/Info : Audio Video Interleave
File size : 746 MiB
Duration : 1h 35mn
Overall bit rate : 1 092 Kbps
Writing application : VirtualDubMod 1.5.10.3 | www.virtualdub-fr.org || (build 2550/release)
Writing library : VirtualDubMod build 2550/release
Video
ID : 0
Format : MPEG-4 Visual
Format profile : Advanced Simple@L5
Format settings, BVOP : 1
Format settings, QPel : No
Format settings, GMC : No warppoints
Format settings, Matrix : Custom
Codec ID : XVID
Codec ID/Hint : XviD
Duration : 1h 35mn
Bit rate : 955 Kbps
Width : 688 pixels
Height : 288 pixels
Display aspect ratio : 2.40:1
Frame rate : 25.000 fps
Color space : YUV
Chroma subsampling : 4:2:0
Bit depth : 8 bits
Scan type : Progressive
Compression mode : Lossy
Bits/(Pixel*Frame) : 0.193
Stream size : 652 MiB (87%)
Writing library : XviD 73
Audio
ID : 1
Format : MPEG Audio
Format version : Version 1
Format profile : Layer 3
Codec ID : 55
Codec ID/Hint : MP3
Duration : 1h 35mn
Bit rate mode : Constant
Bit rate : 128 Kbps
Channel(s) : 2 channels
Sampling rate : 48.0 KHz
Compression mode : Lossy
Stream size : 87.4 MiB (12%)
Alignment : Aligned on interleaves
Interleave, duration : 40 ms (1.00 video frame)
Interleave, preload duratio : 504 ms
Writing library : LAME3.99r
Encoding settings : -m s -V 4 -q 2 -lowpass 17 -b 128

Скриншоты

Релиз от:
[Профиль] [ЛС]
Кто просматривает тему:

Форум Тема Автор Размер
Фантастика и фэнтези Емец Дмитрий - Мефодий Буслаев. Книга 9. Светлые крылья для темного стража (2014) MP3 Swager 217 MB
Наши клипы Инфинити - Крылья (2014) [H.264/1080p] HDTVRip sergej644 210 MB
Наши клипы Инфинити - Крылья [2014, Pop, Master] sergej644 763 MB
Фильмы (HD Rips | 720p, 1080p) Крылья голубки / The Wings Of The Dove (Иэн Софтли / Iain Softley) [1997, США, Великобритания, драма, мелодрама, BDRip 720p] MVO + AVO (Сербин) + Original Eng + subs (rus, eng) reversefile 6.35 GB
Фильмы 2009 года Крылья ночи / Gecenin Kanatları (Сердар Акар / Serdar Akar) [2009, Турция, Драма, HDTVRip] DVO (Бислан Нагоев, Лидия Максимова) + Original turk painkiller 1.46 GB
Мультфильмы СССР Крылья, ноги и хвосты (1985) DVDRip Белочка 51 MB
Отечественные мультфильмы Очень старый человек с огромными крыльями (Олег Белоусов) [1990, СССР, рисованный, короткометражка, экранизация, DVDScreener] TorrentFilm 239 MB
Футбол в России. Премьер-Лига 2015-2016г.г. Футбол. Чемпионат России 2015-16. 1-й тур. Анжи (Махачкала) - Крылья Советов (Самара) [19.07] (2015) SATRip от runetzone sergej644 1.41 GB
Показать сообщения:    

Текущее время: Сегодня 22:30

Часовой пояс: GMT



Вы не можете начинать темы
Вы не можете отвечать на сообщения
Вы не можете редактировать свои сообщения
Вы не можете удалять свои сообщения
Вы не можете голосовать в опросах
Вы не можете прикреплять файлы к сообщениям
Вы не можете скачивать файлы