Крылья ночи / Gecenin Kanatları (Сердар Акар / Serdar Akar) [2009, Турция, Драма, HDTVRip] DVO (Бислан Нагоев, Лидия Максимова) + Original turk

 
Автор Сообщение

painkiller ®

Стаж: 2 года 3 месяца

Сообщений: 582



Награды: Нет

Торрент-статистика

Создавать темы 14-Авг-2014 13:01

[Цитировать]

Крылья ночи / Gecenin Kanatları
Страна: Турция, "BOYUTFILM"
Жанр: Драма
Год выпуска: 2009
Продолжительность: 01:37:13
Перевод: Любительский (двухголосый закадровый, Бислан Нагоев, Лидия Максимова)
Озвучено: по субтитрам (перевод на русский NUSHADVIR для сайта Wide World Passion)
Cубтитры: нет
Оригинальная аудиодорожка: Турецкий
Режиссер: Сердар Акар / Serdar Akar
В ролях: Берен Саат, Мурат Юналмыш, Эркан Петеккая, Явуз Бингёль, Ариф Эркин, Джезми Баскын, Теоман Кумбарджибашиоглу, Ферит Кайя, Али Барышик, Зейнеп Арын Таттыран, Бегюм Кютюк
Описание: Гедже в раннем детстве потеряла своих родителей, в результате перестрелки, устроенной полицией и направленной на массовое истребление революционеров, которые хотели изменить жизнь простых граждан к лучшему. Убитые на ее глазах отец и мать перевернули сознание маленькой девочки… С тех пор мысль о мести не покидала ее ни на минуту. Она стала настолько навязчивой, что Гедже перестала думать о собственной жизни, считая, что отомстить за смерть самых родных людей является единственной ее целью. Она вступает в Комитет революционеров и одержима идеей, принести себя в жертву, ради того, чтобы осуществить месть тем, кто лишил ее детства. Но внезапно, в ее раненом сердце зарождается еще одно чувство – любовь…
Сэмпл: http://multi-up.com/973188
Релиз киноклуба "Феникс". HDTVRip и синхронизация звука - shachter58 Качество видео: HDTVRip
Формат видео: AVI
Видео: MPEG-4 Visual, XviD, 1753 Кбит/с, 25.000 fps, 720x400 (16:9), Bits/(Pixel*Frame)-0.243
Аудио: MPEG Audio, МР3, 2 channels, 44.1 KHz, 192 Kbps - Русский
Аудио 2: MPEG Audio, МР3, 2 channels, 44.1 KHz, 192 Kbps - Турецкий

MediaInfo

General
Complete name : D:\TURKEY SERIALS_razdachi\Krilya.v.nochi.2009.HDTVRip.by.shachter58.avi
Format : AVI
Format/Info : Audio Video Interleave
File size : 1.46 GiB
Duration : 1h 37mn
Overall bit rate : 2 152 Kbps
Video #0
ID : 0
Format : MPEG-4 Visual
Format profile : Advanced Simple@L5
Format settings, BVOP : 2
Format settings, QPel : No
Format settings, GMC : No warppoints
Format settings, Matrix : Default (H.263)
Codec ID : XVID
Codec ID/Hint : XviD
Duration : 1h 37mn
Bit rate : 1 753 Kbps
Width : 720 pixels
Height : 400 pixels
Display aspect ratio : 16:9
Frame rate : 25.000 fps
Color space : YUV
Chroma subsampling : 4:2:0
Bit depth : 8 bits
Scan type : Progressive
Compression mode : Lossy
Bits/(Pixel*Frame) : 0.243
Stream size : 1.19 GiB (81%)
Writing library : XviD 64
Audio #1
ID : 1
Format : MPEG Audio
Format version : Version 1
Format profile : Layer 3
Codec ID : 55
Codec ID/Hint : MP3
Duration : 1h 37mn
Bit rate mode : Constant
Bit rate : 192 Kbps
Channel(s) : 2 channels
Sampling rate : 44.1 KHz
Compression mode : Lossy
Stream size : 134 MiB (9%)
Alignment : Split accross interleaves
Interleave, duration : 40 ms (1.00 video frame)
Interleave, preload duration : 500 ms
Writing library : LAME3.99r
Encoding settings : -m s -V 4 -q 2 -lowpass 18.6 -b 192
Audio #2
ID : 2
Format : MPEG Audio
Format version : Version 1
Format profile : Layer 3
Mode : Joint stereo
Mode extension : MS Stereo
Codec ID : 55
Codec ID/Hint : MP3
Duration : 1h 37mn
Bit rate mode : Constant
Bit rate : 192 Kbps
Channel(s) : 2 channels
Sampling rate : 44.1 KHz
Compression mode : Lossy
Stream size : 133 MiB (9%)
Alignment : Split accross interleaves
Interleave, duration : 40 ms (1.00 video frame)
Interleave, preload duration : 500 ms
Writing library : LAME3.99.5

Скриншот c названием фильма

Скриншоты



[Профиль] [ЛС]

Создавать темы 06-Авг-2015 23:14 (спустя 11 месяцев 23 дня)

Топик был перенесен из форума Фильмы до 2014 года в форум Фильмы до 2012 года
sergej644
 

Создавать темы 12-Июн-2016 08:48 (спустя 1 год 9 месяцев)

Топик был перенесен из форума Фильмы 2011 года в форум Фильмы 2009 года
Russian Mafia
 
Кто просматривает тему:

Форум Тема Автор Размер
Фантастика и фэнтези Емец Дмитрий - Мефодий Буслаев. Книга 9. Светлые крылья для темного стража (2014) MP3 Swager 217 MB
Наши клипы Инфинити - Крылья (2014) [H.264/1080p] HDTVRip sergej644 210 MB
Наши клипы Инфинити - Крылья [2014, Pop, Master] sergej644 763 MB
Фильмы 2016 года Крылья / Ночные стражи (2016) HDTVRip Шкипер 746 MB
Фильмы (HD Rips | 720p, 1080p) Крылья голубки / The Wings Of The Dove (Иэн Софтли / Iain Softley) [1997, США, Великобритания, драма, мелодрама, BDRip 720p] MVO + AVO (Сербин) + Original Eng + subs (rus, eng) reversefile 6.35 GB
Мультфильмы СССР Крылья, ноги и хвосты (1985) DVDRip Белочка 51 MB
Отечественные мультфильмы Очень старый человек с огромными крыльями (Олег Белоусов) [1990, СССР, рисованный, короткометражка, экранизация, DVDScreener] TorrentFilm 239 MB
Футбол в России. Премьер-Лига 2015-2016г.г. Футбол. Чемпионат России 2015-16. 1-й тур. Анжи (Махачкала) - Крылья Советов (Самара) [19.07] (2015) SATRip от runetzone sergej644 1.41 GB
Показать сообщения:    

Текущее время: Сегодня 16:23

Часовой пояс: GMT



Вы не можете начинать темы
Вы не можете отвечать на сообщения
Вы не можете редактировать свои сообщения
Вы не можете удалять свои сообщения
Вы не можете голосовать в опросах
Вы не можете прикреплять файлы к сообщениям
Вы не можете скачивать файлы