Круче не бывает / Жестокая жизнь / Knallhart (Детлев Бук / Detlev Buck) [2006, Германия, драма, криминал, DVDRip] DVO (Союз-Видео) + Original (ger) + Sub

 
Автор Сообщение

TorrentFilm ®

Пол:

Стаж: 2 года

Сообщений: 7741



Награды: Нет

Торрент-статистика

Создавать темы 21-Дек-2014 02:15

[Цитировать]

Круче не бывает / Жестокая жизнь / KnallhartГод выпуска: 2006
Страна: Германия | |
Жанр: Криминально-социальная драма
Продолжительность: 01:35:18
Перевод: Профессиональный (двухголосый, закадровый) «Союз-Видео»

Оригинальная звуковая дорожка [German]
Субтитры: RUS | *srt
Режиссер: Детлев Бук / Detlev Buck
Сценарий: Грегор Трессноу / Gregor Tressnow, Зоран Дрвенкар / Zoran Drvenkar
Продюсер: Клаус Бойе / Claus Boje, Михаэль Андре / Michael André, Соня Шмитт / Sonja Schmitt, Андреас Шрейтмюллер / Andreas Schreitmüller
Оператор: Коля Брандт / Kolja Brandt
Композитор: Берт Вреде / Bert Wrede
В ролях: Давид Кросс (Michael Polischka), Дженни Элверс (Miriam Polischka), Эрхан Эмре (Hamal), Октай Оздемир (Erol), Кида Рамадан (Barut), Арнел Таки (Crille), Кай Мюллер (Matze), Ганс Лёв (Kommissar Gerber), Ян Хенрик Штальберг (Dr. Klaus Peters), Эми Мюбул (Lisa), Георг Фридрих (Holger Hagenbeck), Марк Звинц (Strippe)-Сборы в России: $2 700
Мировая премьера: 12 февраля 2006
Релиз на DVD: 25 января 2007, «Союз-Видео»-Описание: Мириам и ее 15-летний сын Михаэль вынуждены оставить свою виллу в фешенебельном берлинском районе Целлендорф и переехать в неблагоприятный этнический квартал.
На новом месте мальчишке приходится тяжело: в школе ничему кроме побоев не научишься, а доме не дает покоя мать, занятая поисками нового мужчины. Жизнь переворачивается с ног на голову, когда местный криминальный авторитет берет парня под свое крыло.
Оказалось, что его ангельское лицо - идеальная маска наркокурьера. Михаэль входит в роль и ему уже кажется, что он на пути к своей мечте. Однако на самом деле он шел совсем в другую сторону...- Рейтинг
kinopoisk.ru: 7.145 (548)
imdb.com: 7.20 (2695)
-Качество: DVDRip (Cпасибо Xomyak)
Формат: AVI ///СОВМЕСТИМО С БЫТОВЫМИ ПЛЕЕРАМИ///
Размер : 1/3 DVD-R
Видео: 704x400 (1.76:1), 25 fps, XviD build 66 ~1789 kbps avg, 0.25 bit/pixel

//SAMPLE//

Аудио#1: 48 kHz, AC3 Dolby Digital, 2/0 (L,R) ch, ~192 kbps - RUS - DVO (Союз-Видео)
Аудио#2: 48 kHz, AC3 Dolby Digital, 2/0 (L,R) ch, ~192 kbps - Original (GER)

MIКод:General
Complete name : H:\!Allfilms\Kruche.Ne.Byvaet.2006.DUAL.XviD.DVDRip\Kruche.Ne.Byvaet.2006.DUAL.XviD.DVDRip.avi
Format : AVI
Format/Info : Audio Video Interleave
File size : 1.46 GiB
Duration : 1h 35mn
Overall bit rate : 2 189 Kbps
Movie name : Круче не бывает / Жестокая жизнь / Knallhart [2006] DVDRip
Director : Юpист
Genre : криминальная драма
Writing application : VirtualDubMod 1.5.10.3 | www.virtualdub-fr.org || (build 2550/release)
Writing library : VirtualDubMod build 2550/release
Copyright : tru
Video
ID : 0
Format : MPEG-4 Visual
Format profile : Advanced Simple@L5
Format settings, BVOP : 1
Format settings, QPel : No
Format settings, GMC : No warppoints
Format settings, Matrix : Custom
Codec ID : XVID
Codec ID/Hint : XviD
Duration : 1h 35mn
Bit rate : 1 791 Kbps
Width : 704 pixels
Height : 400 pixels
Display aspect ratio : 16:9
Frame rate : 25.000 fps
Color space : YUV
Chroma subsampling : 4:2:0
Bit depth : 8 bits
Scan type : Progressive
Compression mode : Lossy
Bits/(Pixel*Frame) : 0.254
Stream size : 1.19 GiB (82%)
Writing library : XviD 66
Audio #1
ID : 1
Format : AC-3
Format/Info : Audio Coding 3
Mode extension : CM (complete main)
Format settings, Endianness : Big
Codec ID : 2000
Duration : 1h 35mn
Bit rate mode : Constant
Bit rate : 192 Kbps
Channel(s) : 2 channels
Channel positions : Front: L R
Sampling rate : 48.0 KHz
Bit depth : 16 bits
Compression mode : Lossy
Stream size : 131 MiB (9%)
Alignment : Split accross interleaves
Interleave, duration : 40 ms (1.00 video frame)
Interleave, preload duration : 500 ms
Title : RUS - DVO (Союз-Видео)
Audio #2
ID : 2
Format : AC-3
Format/Info : Audio Coding 3
Mode extension : CM (complete main)
Format settings, Endianness : Big
Codec ID : 2000
Duration : 1h 35mn
Bit rate mode : Constant
Bit rate : 192 Kbps
Channel(s) : 2 channels
Channel positions : Front: L R
Sampling rate : 48.0 KHz
Bit depth : 16 bits
Compression mode : Lossy
Stream size : 131 MiB (9%)
Alignment : Split accross interleaves
Interleave, duration : 40 ms (1.00 video frame)
Interleave, preload duration : 500 ms
Title : Original (GER)

-

Скриншоты


-
Сравнениеhttp://screenshotcomparison.com/comparison/104873/picture:8 ==> http://torrentfilm.net/forum/viewtopic.php?t=360394 - другой DVO-
[Профиль] [ЛС]

Создавать темы 06-Авг-2015 22:53 (спустя 7 месяцев 16 дней)

Топик был перенесен из форума Фильмы до 2014 года в форум Фильмы до 2012 года
sergej644
 
Показать сообщения:    

Текущее время: Сегодня 15:40

Часовой пояс: GMT



Вы не можете начинать темы
Вы не можете отвечать на сообщения
Вы не можете редактировать свои сообщения
Вы не можете удалять свои сообщения
Вы не можете голосовать в опросах
Вы не можете прикреплять файлы к сообщениям
Вы не можете скачивать файлы