Крутые Стволы / Mean Guns (1997) BDRip 720p | P2 | Director's cut

 
Автор Сообщение

Russian Mafia ®

Пол:

Стаж: 1 год 8 месяцев

Сообщений: 4256



Награды: 10 (Подробнее)

Top Releaser 5 (Количество: 1) Top Releaser 4 (Количество: 1) Mega Seeder 4 (Количество: 1)
Торрент-статистика

Создавать темы 24-Сен-2015 13:59

[Цитировать]

Информация о фильме
Название: Крутые Стволы
Оригинальное название: Mean Guns
Год выхода: 1997
Жанр: криминал, боевик
Режиссер: Альберт Пьюн / Albert Pyun
В ролях: Кристофер Ламберт, Айс-Ти, Майкл Холси, Кимберли Уоррен, Тина Котэ, Юджи Окумото, Том Мэтьюз, Хантер Доути, Дебора Ван Валкенберг
О фильме:
В только что отстроенной тюрьме некий Мун собирает самых крутых боевиков синдиката и объявляет правила игры, отказаться от которых невозможно. Трое оставшихся в живых должны забрать приз в 10 млн. долларов.
Игра начинается. В общем сражении образуются две группы, из которых выделяется одна - с политическим профессиональным убийцей, его бывшим боссом, очень крутой блондинкой и случайно попавшей в эту историю журналисткой.

Страна: США
Студия: Filmwerks
Продолжительность: 01:50:21
Перевод: Профессиональный (двухголосый закадровый) Twister
Файл
Кодек: AVC
Качество: BDRip 720p
Видео: 1280x720, 23,976 fps, ~5260 kbps
Звук: AC3, 2 ch, 192 kbps, 48kHz

M/I

General
Unique ID : 234696087241442356740977214953460124411 (0xB090D27D546F1CA19077D8562FC0CAFB)
Complete name : F:Крутые стволы.(1997).BLU-RAY.720p.[-=DoMiNo=-].mkv
Format : Matroska
Format version : Version 4 / Version 2
File size : 4.20 GiB
Duration : 1h 50mn
Overall bit rate : 5 452 Kbps
Movie name : Крутые стволы
Writing application : XviD4PSP 7.0.170
Writing library : Lavf56.25.101
ORIGINAL_TITLE : Mean Guns
DATE : 1997
GENRE : боевик, триллер, криминал
ENCODING_INFO : BluRay > MKV 720p / H264 > X264 VBR-2P 5260kbps Custom / DTS-HD MA > AC3 CBR 192kbps
SYNOPSIS : В только что отстроенной тюрьме некий Мун собирает самых крутых боевиков синдиката и объявляет правила игры, отказаться от которых невозможно. Трое оставшихся в живых должны забрать приз в 10 млн. долларов.Игра начинается. В общем сражении образуются две группы, из которых выделяется одна — с политическим профессиональным убийцей, его бывшим боссом, очень крутой блондинкой и случайно попавшей в эту историю журналисткой.
ITUNEXTC : mpaa|R|400|
ACTORS : Кристофер Ламберт, Айс-Ти, Майкл Халсли, Дебора Ван Валкенберг, Тина Коте, Юдзи Окумото, Том Мэтьюз, Кимберли Уоррен, Хантер Дугти, Джерри Ректор, показать всех
DIRECTOR : Альберт Пьюн
PRODUCER : Том Карновски, Гари Шмоллер, Кристофер Бейтс
WRITER : Эндрю Уитхэм
COUNTRY : США
RATING : 6.737
IMDB_RATING : 5.70
Language : und
FILENAME : cover.png
Attachements : cover.png
Video
ID : 1
Format : AVC
Format/Info : Advanced Video Codec
Format profile : High@L4.1
Format settings, CABAC : Yes
Format settings, ReFrames : 8 frames
Codec ID : V_MPEG4/ISO/AVC
Duration : 1h 50mn
Bit rate : 5 260 Kbps
Width : 1 280 pixels
Height : 720 pixels
Display aspect ratio : 16:9
Frame rate mode : Constant
Frame rate : 23.976 fps
Color space : YUV
Chroma subsampling : 4:2:0
Bit depth : 8 bits
Scan type : Progressive
Bits/(Pixel*Frame) : 0.238
Stream size : 3.97 GiB (94%)
Writing library : x264 core 148 r2597M e86f3a1
Encoding settings : cabac=1 / ref=8 / deblock=1:-3:-3 / analyse=0x3:0x133 / me=umh / subme=10 / psy=1 / psy_rd=1.00:0.20 / mixed_ref=1 / me_range=32 / chroma_me=1 / trellis=2 / 8x8dct=1 / cqm=0 / deadzone=21,11 / fast_pskip=0 / chroma_qp_offset=-3 / threads=5 / lookahead_threads=1 / sliced_threads=0 / nr=0 / decimate=1 / interlaced=0 / bluray_compat=0 / constrained_intra=0 / bframes=10 / b_pyramid=2 / b_adapt=2 / b_bias=0 / direct=3 / weightb=1 / open_gop=0 / weightp=2 / keyint=230 / keyint_min=23 / scenecut=40 / intra_refresh=0 / rc=2pass / mbtree=0 / bitrate=5260 / ratetol=1.0 / qcomp=0.60 / qpmin=0 / qpmax=69 / qpstep=4 / cplxblur=20.0 / qblur=0.5 / ip_ratio=1.40 / pb_ratio=1.30 / aq=1:1.00
Default : Yes
Forced : No
Color range : Limited
Color primaries : BT.709
Transfer characteristics : BT.709
Matrix coefficients : BT.709
Audio
ID : 2
Format : AC-3
Format/Info : Audio Coding 3
Mode extension : CM (complete main)
Format settings, Endianness : Big
Codec ID : A_AC3
Duration : 1h 50mn
Bit rate mode : Constant
Bit rate : 192 Kbps
Channel(s) : 2 channels
Channel positions : Front: L R
Sampling rate : 48.0 KHz
Bit depth : 32 bits
Compression mode : Lossy
Delay relative to video : 27ms
Stream size : 152 MiB (4%)
Title : двухголосый, Twister
Language : Russian
Default : Yes
Forced : No
Menu
00:00:00.000 : :Глава 1
00:10:52.025 : :Глава 2
00:24:05.652 : :Глава 3
00:36:36.569 : :Глава 4
00:52:18.927 : :Глава 5
01:08:23.557 : :Глава 6
01:21:56.953 : :Глава 7
01:37:32.972 : :Глава 8
01:50:19.070 : :Глава 9
-- --
[Профиль] [ЛС]
Показать сообщения:    

Текущее время: Сегодня 16:43

Часовой пояс: GMT



Вы не можете начинать темы
Вы не можете отвечать на сообщения
Вы не можете редактировать свои сообщения
Вы не можете удалять свои сообщения
Вы не можете голосовать в опросах
Вы не можете прикреплять файлы к сообщениям
Вы не можете скачивать файлы