Крутые меры / Bastille Day (2016) BDRemux 1080p | iTunes, A

 
Автор Сообщение

достали все ®

Пол:

Стаж: 1 год 8 месяцев

Сообщений: 6545



Награды: 12 (Подробнее)

За внесенный вклад в развитие сайта (Количество: 1) Mega Releaser 3 (Количество: 1) Top Releaser 4 (Количество: 1)
Торрент-статистика

Создавать темы 10-Окт-2016 04:02

[Цитировать]

Информация о фильме
Название: Крутые меры
Оригинальное название: Bastille Day
Год выхода: 2016
Жанр: Боевик, драма
Режиссер: Джеймс Уоткинс
В ролях: Идрис Эльба, Ричард Мэдден, Келли Райлли, Шарлотта Ле Бон, Анатол Юсеф, Хорхе Леон Мартинес, Карл Фаррер, Хосе Гарсиа, Александр Купер, Эрик Эбони
О фильме:
Ловкий карманник Майкл Мэйсон привлекает внимание полиции и спецслужб, когда крадет сумку, содержащую гораздо больше, чем просто бумажник. На его след выходит дерзкий и резкий спецагент ЦРУ Шон Брайар. Вдвоем они становятся мишенью тайной преступной организации и в течение суток должны вывести злоумышленников на чистую воду.

Страна: Великобритания, Франция, США
Студия: Canal+
Продолжительность: 01:31:48
Перевод: Дублированный | iTunes
Авторский одноголосый (закадровый) | Дмитрий Есарев
Файл
Кодек: MPEG-4
Качество: BDRemux 1080p
Видео: 1920x1080, 24.8 Mbit/s, 24.000 fps
Звук:
Аудио #01: 48 kHz, AC3, 5.1, 384 Kbps | Дублированный | iTunes |
Аудио #02: 48 kHz, DTS-HD MA, 7.1, 5153 Kbps | Авторский одноголосый (закадровый) | Дмитрий Есарев |
Аудио #03: 48 kHz, AC3, 5.1, 640 Kbps | Авторский одноголосый (закадровый) | Дмитрий Есарев |
Аудио #04: 48 kHz, TrueHD, 7.1, 4630 kbps | Оригинал |
Субтитры: Английские

MI

General
Unique ID : 242913961471940477312323399197797531890 (0xB6BF86F899EA49C4AF1BF73D775E40F2)
Complete name : H:VideoBastille.Day.2016.D.AVO.BDREMUX.1080p.ExKinoRay.mkv
Format : Matroska
Format version : Version 4 / Version 2
File size : 22.9 GiB
Duration : 1 h 32 min
Overall bit rate mode : Variable
Overall bit rate : 35.6 Mb/s
Movie name : build by ***селезень***
Encoded date : UTC 2016-10-09 23:25:33
Writing application : mkvmerge v8.3.0 ('Over the Horizon') 64bit
Writing library : libebml v1.3.1 + libmatroska v1.4.2
Video
ID : 1
Format : AVC
Format/Info : Advanced Video Codec
Format profile : High@L4.1
Format settings, CABAC : Yes
Format settings, ReFrames : 4 frames
Codec ID : V_MPEG4/ISO/AVC
Duration : 1 h 31 min
Bit rate mode : Variable
Bit rate : 24.8 Mb/s
Maximum bit rate : 28.0 Mb/s
Width : 1 920 pixels
Height : 1 080 pixels
Display aspect ratio : 16:9
Frame rate mode : Constant
Frame rate : 24.000 FPS
Color space : YUV
Chroma subsampling : 4:2:0
Bit depth : 8 bits
Scan type : Progressive
Bits/(Pixel*Frame) : 0.499
Stream size : 15.9 GiB (69%)
Title : build by ***селезень***
Language : English
Default : Yes
Forced : No
Audio #1
ID : 2
Format : AC-3
Format/Info : Audio Coding 3
Mode extension : CM (complete main)
Format settings, Endianness : Big
Codec ID : A_AC3
Duration : 1 h 31 min
Bit rate mode : Constant
Bit rate : 384 kb/s
Channel(s) : 6 channels
Channel positions : Front: L C R, Side: L R, LFE
Sampling rate : 48.0 kHz
Frame rate : 31.250 FPS (1536 spf)
Compression mode : Lossy
Stream size : 252 MiB (1%)
Title : Dub [iTunes]
Language : Russian
Default : Yes
Forced : No
Audio #2
ID : 3
Format : DTS
Format/Info : Digital Theater Systems
Format profile : MA / Core
Mode : 16
Format settings, Endianness : Big
Codec ID : A_DTS
Duration : 1 h 32 min
Bit rate mode : Variable / Constant
Bit rate : 5 153 kb/s / 1 509 kb/s
Channel(s) : 8 channels / 6 channels
Channel positions : Front: L C R, Side: L R, Back: L R, LFE / Front: L C R, Side: L R, LFE
Sampling rate : 48.0 kHz
Frame rate : 93.750 FPS (512 spf)
Bit depth : 24 bits
Compression mode : Lossless / Lossy
Stream size : 3.32 GiB (14%)
Title : AVO-DTS-HD MA (D.ESAREV]
Language : Russian
Default : No
Forced : No
Audio #3
ID : 4
Format : AC-3
Format/Info : Audio Coding 3
Mode extension : CM (complete main)
Format settings, Endianness : Big
Codec ID : A_AC3
Duration : 1 h 32 min
Bit rate mode : Constant
Bit rate : 640 kb/s
Channel(s) : 6 channels
Channel positions : Front: L C R, Side: L R, LFE
Sampling rate : 48.0 kHz
Frame rate : 31.250 FPS (1536 spf)
Compression mode : Lossy
Stream size : 422 MiB (2%)
Title : AVO-AC3 [D.ESAREV]
Language : Russian
Default : No
Forced : No
Audio #4
ID : 5
Format : Atmos / TrueHD
Codec ID : A_TRUEHD
Duration : 1 h 32 min
Bit rate mode : Variable
Bit rate : 4 630 kb/s
Maximum bit rate : 8 844 kb/s
Channel(s) : Object Based / 8 channels
Channel positions : Object Based / Front: L C R, Side: L R, Back: L R, LFE
Sampling rate : / 48.0 kHz
Frame rate : 1 200.000 FPS (40 spf)
Compression mode : Lossless
Stream size : 2.98 GiB (13%)
Title : Original
Language : English
Default : No
Forced : No
Text #1
ID : 6
Format : UTF-8
Codec ID : S_TEXT/UTF8
Codec ID/Info : UTF-8 Plain Text
Duration : 1 h 28 min
Bit rate : 35 b/s
Count of elements : 651
Stream size : 22.9 KiB (0%)
Title : Full
Language : English
Default : No
Forced : No
Text #2
ID : 7
Format : UTF-8
Codec ID : S_TEXT/UTF8
Codec ID/Info : UTF-8 Plain Text
Duration : 1 h 28 min
Bit rate : 38 b/s
Count of elements : 762
Stream size : 24.8 KiB (0%)
Title : SDH
Language : English
Default : No
Forced : No
Menu
00:00:00.000 : en:00:00:00.000
00:08:06.625 : en:00:08:06.625
00:16:39.833 : en:00:16:39.833
00:24:20.625 : en:00:24:20.625
00:33:04.625 : en:00:33:04.625
00:41:03.625 : en:00:41:03.625
00:48:37.625 : en:00:48:37.625
00:57:03.417 : en:00:57:03.417
01:07:59.000 : en:01:07:59.000
01:16:54.625 : en:01:16:54.625
01:21:43.000 : en:01:21:43.000
01:25:26.833 : en:01:25:26.833

Внимание!

Присутствует ненормативная лексика.

Автор релиза:
[Профиль] [ЛС]
Показать сообщения:    

Текущее время: Сегодня 20:43

Часовой пояс: GMT



Вы не можете начинать темы
Вы не можете отвечать на сообщения
Вы не можете редактировать свои сообщения
Вы не можете удалять свои сообщения
Вы не можете голосовать в опросах
Вы не можете прикреплять файлы к сообщениям
Вы не можете скачивать файлы