Крутой поворот / The Lucky Ones (2008) WEB-DL 720p | P2

 
Автор Сообщение

BOSS ®

Пол:

Стаж: 3 года 2 месяца

Сообщений: 8630

Откуда: ODESSA



Награды: 22 (Подробнее)

Mega Releaser 4 (Количество: 1) Top Seeder 3 (Количество: 1) Top Keeper 4 (Количество: 1)
Торрент-статистика

Создавать темы 31-Июл-2017 15:34

[Цитировать]

Информация о фильме
Название: Крутой поворот
Оригинальное название: The Lucky Ones
Год выхода: 2008
Жанр: драма, комедия, военный
Режиссер: Нил Бёргер
В ролях: Тим Роббинс, Рэйчел МакАдамс, Майкл Пенья, Молли Хэйгэн, Марк Л. Янг, Ховард Платт, Джон Хёрд, Дженнифер Джоан Тейлор
О фильме:
Когда отменяют авиарейсы, люди поневоле знакомятся в аэропорту. Получившие отпуска с войны трое солдат не стали ждать у моря погоды, а арендовали автомобиль. Раньше совершенно незнакомые люди, теперь они вместе катят по бескрайней американской дороге — юная Коли, молодой парень Ти Кей и двухметровый детина Чивер.
Каждый из них нашел свою причину махнуть в Лас-Вегас, чтобы решить что-то важное для себя. Они еще не знают, как серьезно им придется поддерживать друг друга, переживать потери и выпутываться из переделок, драться с чуждыми им людьми и заново открывать свою Америку…

Страна: США
Продолжительность: 01:53:08
Перевод: Профессиональный (двухголосый закадровый)
Файл
Формат: MKV
Видео: 1280x720 at 23.976 fps, MPEG-4 AVC, ~4174 kbps avg
Aудио#1: Russian: 48 kHz, AC3, 3/2 (L,C,R,l,r) + LFE ch, ~448.00 kbps avg
Aудио#2: English: 48 kHz, AC3, 3/2 (L,C,R,l,r) + LFE ch, ~384.00 kbps avg
Субтитры: Английские

MediaInfo

General
Unique ID : 250500449618531076842452188387992965032 (0xBC74A1B71C096246A31C118357488FA8)
Complete name : The.Lucky.Ones.2008.WEB-DL.720p.mkv
Format : Matroska
Format version : Version 4 / Version 2
File size : 4.04 GiB
Duration : 1 h 53 min
Overall bit rate : 5 107 kb/s
Encoded date : UTC 2015-10-27 14:45:12
Writing application : mkvmerge v6.1.0 ('Old Devil') built on Mar 2 2013 14:32:37
Writing library : libebml v1.3.0 + libmatroska v1.4.0
Video
ID : 1
Format : AVC
Format/Info : Advanced Video Codec
Format profile : High@L3.1
Format settings, CABAC : No
Format settings, ReFrames : 2 frames
Codec ID : V_MPEG4/ISO/AVC
Duration : 1 h 53 min
Bit rate : 4 174 kb/s
Width : 1 280 pixels
Height : 720 pixels
Display aspect ratio : 16:9
Frame rate mode : Constant
Frame rate : 23.976 (24000/1001) FPS
Color space : YUV
Chroma subsampling : 4:2:0
Bit depth : 8 bits
Scan type : Progressive
Bits/(Pixel*Frame) : 0.189
Stream size : 3.30 GiB (82%)
Language : English
Default : Yes
Forced : No
Color range : Limited
Color primaries : BT.709
Transfer characteristics : BT.709
Matrix coefficients : BT.709
Audio #1
ID : 2
Format : AC-3
Format/Info : Audio Coding 3
Format settings, Endianness : Big
Codec ID : A_AC3
Duration : 1 h 53 min
Bit rate mode : Constant
Bit rate : 448 kb/s
Channel(s) : 6 channels
Channel positions : Front: L C R, Side: L R, LFE
Sampling rate : 48.0 kHz
Frame rate : 31.250 FPS (1536 spf)
Bit depth : 16 bits
Compression mode : Lossy
Stream size : 363 MiB (9%)
Language : Russian
Service kind : Complete Main
Default : Yes
Forced : No
Audio #2
ID : 3
Format : AC-3
Format/Info : Audio Coding 3
Format settings, Endianness : Big
Codec ID : A_AC3
Duration : 1 h 53 min
Bit rate mode : Constant
Bit rate : 384 kb/s
Channel(s) : 6 channels
Channel positions : Front: L C R, Side: L R, LFE
Sampling rate : 48.0 kHz
Frame rate : 31.250 FPS (1536 spf)
Bit depth : 16 bits
Compression mode : Lossy
Stream size : 311 MiB (8%)
Language : English
Service kind : Complete Main
Default : No
Forced : No
Text
ID : 4
Format : UTF-8
Codec ID : S_TEXT/UTF8
Codec ID/Info : UTF-8 Plain Text
Language : English
Default : No
Forced : No

Скриншоты



[Профиль] [ЛС]
Кто просматривает тему:

Форум Тема Автор Размер
Праздничные концерты В жизни раз бывает 60. Юбилейный концерт Игоря Крутого (2014) HDRip-AVC sergej644 3.81 GB
Документальные HD Игорь Матвиенко: Круто ты Попал (Татьяна Фрейденссон) [2015, Документальный, HDTV 720p] TorrentFilm 1.51 GB
Боевики, детективы, триллеры Картер Браун - Собрание сочинений (156 книг) [1987-2015, Крутой детектив, FB2] обновлено 11.02.2016 Garik014 100 MB
Индийское кино Король Сингх 2 / Крутой Сингх / Singh Is Bling (2015) DVDRip | L2 достали все 2.06 GB
Фильмы 2006-2008 года Крутой вираж / Crash and Burn (Рассел Малкэй / Russell Mulcahy) [2008, США, боевик, триллер, HDTVRip] MVO TorrentFilm 1.37 GB
Отечественные мультфильмы Крутой Джо (Антон Королюк) [2010, Анимационный фильм, DVDScreener] TorrentFilm 47 MB
Фильмы 2006-2008 года Крутой поворот / Счастливчики / The Lucky Ones (Нил Бёргер / Neil Burger) [2008, США, драма, комедия, военный, WEB-DLRip] DVO + Sub Eng + Original Eng TorrentFilm 2.18 GB
Разное Крутой портрет. Ретушь. Идеальный цвет (2015) PCRec sergej644 6.05 GB
Показать сообщения:    

Текущее время: Сегодня 12:32

Часовой пояс: GMT



Вы не можете начинать темы
Вы не можете отвечать на сообщения
Вы не можете редактировать свои сообщения
Вы не можете удалять свои сообщения
Вы не можете голосовать в опросах
Вы не можете прикреплять файлы к сообщениям
Вы не можете скачивать файлы