Крутой поворот / Счастливчики / The Lucky Ones (Нил Бёргер / Neil Burger) [2008, США, драма, комедия, военный, WEB-DLRip] DVO + Sub Eng + Original Eng

 
Автор Сообщение

TorrentFilm ®

Пол:

Стаж: 2 года

Сообщений: 7741



Награды: Нет

Торрент-статистика

Создавать темы 20-Мар-2016 00:09

[Цитировать]

Крутой поворот / Счастливчики / The Lucky Ones
Страна: США
Жанр: драма, комедия, военный
Год выпуска: 2008
Продолжительность: 01:53:08
Перевод: Профессиональный (двухголосый закадровый)
Cубтитры: английские
Оригинальная аудиодорожка: английский

Режиссер: Нил Бёргер / Neil Burger
В ролях: Тим Роббинс, Рэйчел МакАдамс, Майкл Пенья, Молли Хэйгэн, Марк Л. Янг, Ховард Платт, Джон Хёрд, Дженнифер Джоан Тейлор
Описание: Когда отменяют авиарейсы, люди поневоле знакомятся в аэропорту. Получившие отпуска с войны трое солдат не стали ждать у моря погоды, а арендовали автомобиль. Раньше совершенно незнакомые люди, теперь они вместе катят по бескрайней американской дороге — юная Коли, молодой парень Ти Кей и двухметровый детина Чивер.
Каждый из них нашел свою причину махнуть в Лас-Вегас, чтобы решить что-то важное для себя. Они еще не знают, как серьезно им придется поддерживать друг друга, переживать потери и выпутываться из переделок, драться с чуждыми им людьми и заново открывать свою Америку…

Качество видео: [url=viewtopic.php?t=5105846]WEB-DLRip[/url]
Формат видео: AVI
Видео: 704x400 (1.76:1), 23.976 fps, XviD MPEG-4 ~1917 kbps avg, 0.28 bit/pixel
Аудио: 48 kHz, AC3 Dolby Digital, 3/2 (L,C,R,l,r) + LFE ch, ~448 kbps - двухголосый
Аудио: 48 kHz, AC3 Dolby Digital, 3/2 (L,C,R,l,r) + LFE ch, ~384 kbps - оригинал

MediaInfo

Общее
Полное имя : H:\The.Lucky.Ones.2008.web-dlrip_[2.18]_[teko]\The.Lucky.Ones.2008.web-dlrip_[2.18].avi
Формат : AVI
Формат/Информация : Audio Video Interleave
Профиль формата : OpenDML
Размер файла : 2,18 Гбайт
Продолжительность : 1 ч. 53 м.
Общий поток : 2757 Кбит/сек
Программа кодирования : VirtualDubMod 1.5.10.3 | www.virtualdub-fr.org || (build 2550/release)
Библиотека кодирования : VirtualDubMod build 2550/release
Видео
Идентификатор : 0
Формат : MPEG-4 Visual
Профиль формата : Advanced Simple@L5
Параметр BVOP формата : 2
Параметр QPel формата : Нет
Параметр GMC формата : Без точки перехода
Параметр матрицы формата : Выборочная
Идентификатор кодека : XVID
Идентификатор кодека/Подсказка : XviD
Продолжительность : 1 ч. 53 м.
Битрейт : 1907 Кбит/сек
Ширина : 704 пикселя
Высота : 400 пикселей
Соотношение сторон : 16:9
Частота кадров : 23,976 кадра/сек
Цветовое пространство : YUV
Субдискретизация насыщенности : 4:2:0
Битовая глубина : 8 бит
Тип развёртки : Прогрессивная
Метод сжатия : С потерями
Бит/(Пиксели*Кадры) : 0.282
Размер потока : 1,51 Гбайт (69%)
Библиотека кодирования : XviD 73
Аудио #1
Идентификатор : 1
Формат : AC-3
Формат/Информация : Audio Coding 3
Расширение режима : CM (complete main)
Параметр Endianness формата : Big
Идентификатор кодека : 2000
Продолжительность : 1 ч. 53 м.
Вид битрейта : Постоянный
Битрейт : 448 Кбит/сек
Каналы : 6 каналов
Расположение каналов : Front: L C R, Side: L R, LFE
Частота : 48,0 КГц
Битовая глубина : 16 бит
Метод сжатия : С потерями
Размер потока : 362 Мбайт (16%)
Выравнивание : Разделение по промежуткам
Продолжительность промежутка : 42 мс. (1,00 видеокадр)
Время предзагрузки промежутка : 500 мс.
Аудио #2
Идентификатор : 2
Формат : AC-3
Формат/Информация : Audio Coding 3
Расширение режима : CM (complete main)
Параметр Endianness формата : Big
Идентификатор кодека : 2000
Продолжительность : 1 ч. 53 м.
Вид битрейта : Постоянный
Битрейт : 384 Кбит/сек
Каналы : 6 каналов
Расположение каналов : Front: L C R, Side: L R, LFE
Частота : 48,0 КГц
Битовая глубина : 16 бит
Метод сжатия : С потерями
Размер потока : 311 Мбайт (14%)
Выравнивание : Разделение по промежуткам
Продолжительность промежутка : 42 мс. (1,00 видеокадр)
Время предзагрузки промежутка : 500 мс.
Релиз группы:
[url=viewtopic.php?t=1677970] [/url]
--
[Профиль] [ЛС]

Создавать темы 12-Июн-2016 08:50 (спустя 2 месяца 23 дня)

Топик был перенесен из форума Фильмы 2011 года в форум Фильмы 2006-2008 года
Russian Mafia
 
Показать сообщения:    

Текущее время: Сегодня 00:50

Часовой пояс: GMT



Вы не можете начинать темы
Вы не можете отвечать на сообщения
Вы не можете редактировать свои сообщения
Вы не можете удалять свои сообщения
Вы не можете голосовать в опросах
Вы не можете прикреплять файлы к сообщениям
Вы не можете скачивать файлы