Крутой Джо (Антон Королюк) [2010, Анимационный фильм, DVDScreener]

 
Автор Сообщение

TorrentFilm ®

Пол:

Стаж: 2 года 6 месяцев

Сообщений: 7773



Награды: Нет

Торрент-статистика

Создавать темы 17-Дек-2014 02:30

[Цитировать]

Крутой Джо
Страна: РФ
Жанр: Анимационный фильм
Продолжительность: 00:03:19
Год выпуска: 2010
Русские субтитры: нет
Режиссёр: Антон Королюк
Описание: Дикий Запад. Крошечный городок посреди пустынных прерий. Здесь нет места слабым. Нет места тому, кто не может за себя постоять. Здесь выживает сильнейший. Тот, кто так же крут, как Джо.
Доп. информация: Короткометражный мультфильм «Tough Joe» (Крутой Джо) – работа Антона Королюка, студента, участника X Фестиваля студенческих фильмов Питеркит, проводимого Санкт-Петербургским государственным университетом кино и телевидения. Мультфильм «Tough Joe» получил Гран-при фестиваля.
Качество: DVDScreener
Формат: AVI
Видео: DIVX, 720x408, 25fps, 1787kbps
Аудио: MPEG Layer 3, 48kHz, 2ch, 192kbps
Субтитры: отсутствуют

Подробные технические данные

Полное имя : Крутой Джо.aviФормат : AVIФормат/Информация : Audio Video InterleaveРазмер файла : 47,3 МбайтПродолжительность : 3 м. 19 с.Общий поток : 1989 Кбит/секПрограмма кодирования : VirtualDubMod 1.5.10.3 | www.virtualdub-fr.org || (build 2550/release)Библиотека кодирования : VirtualDubMod build 2550/release
ВидеоИдентификатор : 0Формат : MPEG-4 VisualПрофиль формата : Advanced Simple@L5Параметр BVOP формата : 1Параметр QPel формата : НетПараметр GMC формата : Без точки переходаПараметр матрицы формата : Default (H.263)Идентификатор кодека : DIVXИдентификатор кодека/Информация : Project MayoИдентификатор кодека/Подсказка : DivX 4Продолжительность : 3 м. 19 с.Битрейт : 1787 Кбит/секШирина : 720 пикселейВысота : 408 пикселейСоотношение сторон : 16:9Частота кадров : 25,000 кадров/секЦветовое пространство : YUVСубдискретизация насыщенности : 4:2:0Битовая глубина : 8 битТип развёртки : ПрогрессивнаяМетод сжатия : С потерямиБит/(Пиксели*Кадры) : 0.243Размер потока : 42,5 Мбайт (90%)Библиотека кодирования : XviD 1.2.1 (UTC 2008-12-04)
АудиоИдентификатор : 1Формат : MPEG AudioВерсия формата : Version 1Профиль формата : Layer 3Идентификатор кодека : 55Идентификатор кодека/Подсказка : MP3Продолжительность : 3 м. 19 с.Вид битрейта : ПостоянныйБитрейт : 192 Кбит/секКаналы : 2 каналаЧастота : 48,0 КГцМетод сжатия : С потерямиРазмер потока : 4,57 Мбайт (10%)Выравнивание : Соединение по промежуткамПродолжительность промежутка : 40 мс. (1,00 видеокадр)Время предзагрузки промежутка : 504 мс.Библиотека кодирования : LAME3.99rНастройки программы : -m s -V 4 -q 0 -lowpass 18.6 -b 192

Скриншоты



[Профиль] [ЛС]
Кто просматривает тему:

Показать сообщения:    

Текущее время: Сегодня 22:45

Часовой пояс: GMT



Вы не можете начинать темы
Вы не можете отвечать на сообщения
Вы не можете редактировать свои сообщения
Вы не можете удалять свои сообщения
Вы не можете голосовать в опросах
Вы не можете прикреплять файлы к сообщениям
Вы не можете скачивать файлы