Крутой вираж / Crash and Burn (Рассел Малкэй / Russell Mulcahy) [2008, США, боевик, триллер, HDTVRip] MVO

 
Автор Сообщение

TorrentFilm ®

Пол:

Стаж: 2 года

Сообщений: 7741



Награды: Нет

Торрент-статистика

Создавать темы 08-Фев-2015 00:01

[Цитировать]

Крутой вираж / Crash and Burn
Страна: США
Жанр: боевик, триллер
Год выпуска: 2008
Продолжительность: 01:21:43
Перевод: Профессиональный (многоголосый закадровый)
Cубтитры: нет
Режиссер: Рассел Малкэй / Russell Mulcahy
В ролях: Эрик Палладино, Майкл Мэдсен, Дэвид Москоу, Хезер Мари Мэрсден, Питер Джейсон, Оуэн Бекман, Джефф Энден, Энтони Джон Дэнисон, Лобо Себастьян,Риго Санчес
Описание: Вернувшись в Лос-Анджелес после долгого отсутствия, профессиональный угонщик Кевин Хокинс сразу вливается в компанию старых друзей — таких же профессионалов, которые именно в это время получают большой заказ на партию дорогих, редких и престижных автомобилей. Но в городе, кроме них, орудует еще одна банда, члены которой жестоки и не терпят соперничества в таком прибыльном бизнесе, как угон и продажа ворованных автомобилей.
Любой вторгшийся на их территорию может запросто поплатиться жизнью. Но заказ принят, и его необходимо выполнить. Хотя бы еще потому, что Кевин уже не тот человек, которого друзья знали раньше, и сейчас он ведет двойную игру…
Доп. информация: За запись исходника спасибо Romanok8691
Релиз
Сэмпл: https://yadi.sk/i/M0htv5tpeWszW
Качество видео: HDTVRip
Формат видео: AVI
Видео: 720x400 (1.80:1), 25 fps, XviD build 50 ~2192 kbps avg, 0.30 bit/pixel
Аудио: 48 kHz, AC3 Dolby Digital, 2/0 (L,R) ch, ~192 kbps

MediaInfo

Крутой вираж - Crash and Burn [by Edich2].avi
Format : AVI
Format/Info : Audio Video Interleave
File size : 1.37 GiB
Duration : 1h 21mn
Overall bit rate : 2 395 Kbps
Movie name : Крутой вираж - Crash and Burn [by Edich2]
Director : by Edich2
Writing application : VirtualDubMod 1.5.10.3 | www.virtualdub-fr.org || (build 2550/release)
Comment : RuTracker.org
Video
ID : 0
Format : MPEG-4 Visual
Format profile : Advanced Simple@L5
Format settings, BVOP : 1
Format settings, QPel : No
Format settings, GMC : No warppoints
Format settings, Matrix : Default (MPEG)
Codec ID : XVID
Codec ID/Hint : XviD
Duration : 1h 21mn
Bit rate : 2 193 Kbps
Width : 720 pixels
Height : 400 pixels
Display aspect ratio : 16:9
Frame rate : 25.000 fps
Color space : YUV
Chroma subsampling : 4:2:0
Bit depth : 8 bits
Scan type : Progressive
Compression mode : Lossy
Bits/(Pixel*Frame) : 0.305
Stream size : 1.25 GiB (92%)
Writing library : XviD 1.2.1 (UTC 2008-12-04)
Audio
ID : 1
Format : AC-3
Format/Info : Audio Coding 3
Mode extension : CM (complete main)
Format settings, Endianness : Big
Codec ID : 2000
Duration : 1h 21mn
Bit rate mode : Constant
Bit rate : 192 Kbps
Channel(s) : 2 channels
Channel positions : Front: L R
Sampling rate : 48.0 KHz
Bit depth : 16 bits
Compression mode : Lossy
Stream size : 112 MiB (8%)
Alignment : Split accross interleaves
Interleave, duration : 40 ms (1.00 video frame)
Interleave, preload duration : 500 ms

Скриншоты


[Профиль] [ЛС]

Создавать темы 06-Авг-2015 22:47 (спустя 5 месяцев 26 дней)

Топик был перенесен из форума Фильмы до 2014 года в форум Фильмы до 2012 года
sergej644
 

Создавать темы 12-Июн-2016 08:51 (спустя 1 год 4 месяца)

Топик был перенесен из форума Фильмы 2011 года в форум Фильмы 2006-2008 года
Russian Mafia
 
Показать сообщения:    

Текущее время: Сегодня 15:44

Часовой пояс: GMT



Вы не можете начинать темы
Вы не можете отвечать на сообщения
Вы не можете редактировать свои сообщения
Вы не можете удалять свои сообщения
Вы не можете голосовать в опросах
Вы не можете прикреплять файлы к сообщениям
Вы не можете скачивать файлы