Кружева (Иван Мережко) [2013, Россия, мелодрама, HDTVRip 720p]

 
Автор Сообщение

reversefile ®

Пол:

Стаж: 4 года 5 месяцев

Сообщений: 842

Откуда: ReverseFile.org



Награды: Нет

Торрент-статистика

Создавать темы 13-Авг-2014 18:26

[Цитировать]

Кружева
Выпущено: Россия, Медиапрофсоюз
Жанр: мелодрама
Год выпуска: 2013
Продолжительность: 01:39:27
Субтитры: нет
Режиссер: Иван Мережко
В ролях: Вера Баханкова, Иван Жидков, Валерия Арланова, Андрей Карако, Светлана Никифорова, Татьяна Кулеш, Дмитрий Егоров, Елена Дубровская, Наталья Онищенко, Анатолий Голуб, Анна Богдан, Ольга Абрикосова, Инна Коляда, Валентина Гарцуева, Алеся Пуховая
Описание: Вера работает швеей на заштатной фабрике города Егорьевска, но мечтает о карьере модного модельера. У неё есть талант и коллекция авторских эскизов, которые никому не интересны в родном Егорьевске. Выход один – ехать в столицу! Уверенная в своей исключительности, Вера заявляется в популярный московский Дом моды Ирины Штайф. Но там девушке из периферии готовы предложить только должность уборщицы. Вера разочарована и всё же соглашается даже на это. Позже поломойка выведет на чистую воду владелицу Дома моды, найдёт верную подругу и всё-таки покорит Москву. Но самое главное – Вера встретит в Москве настоящую любовь...

Автор рипа / записи: fanatus
Исходник: Запись с телеканала РОССИЯ HD
Качество: HDTVRip 720p
Формат: MKV
Видео кодек: H.264
Аудио кодек: AC3
Видео: MPEG-4 AVC, 3373 kbps , 1280x720 (16:9), 25.000 fps, 0.146 bit/pixel
Аудио: AC3, 2 ch, 48 kHz, 192 kbps

MediaInfo

General
Unique ID : 204443163048351582819006024011839626054 (0x99CE522AB275F997B970C3D7317EDB46)
Complete name : E:\Kruzheva.2013.x264.HDTVRip.720p.fanatus.mkv
Format : Matroska
Format version : Version 2
File size : 2.48 GiB
Duration : 1h 39mn
Overall bit rate : 3 566 Kbps
Movie name : Kruzheva (2013) - fanatus
Encoded date : UTC 2014-07-27 21:11:23
Writing application : mkvmerge v3.4.0 ('Rapunzel') сборка от May 15 2010 09:38:20
Writing library : libebml v0.8.0 + libmatroska v0.9.0
Video
ID : 1
Format : AVC
Format/Info : Advanced Video Codec
Format profile : High@L4.1
Format settings, CABAC : Yes
Format settings, ReFrames : 9 frames
Codec ID : V_MPEG4/ISO/AVC
Duration : 1h 39mn
Bit rate : 3 373 Kbps
Width : 1 280 pixels
Height : 720 pixels
Display aspect ratio : 16:9
Frame rate : 25.000 fps
Color space : YUV
Chroma subsampling : 4:2:0
Bit depth : 8 bits
Scan type : Progressive
Bits/(Pixel*Frame) : 0.146
Stream size : 2.29 GiB (93%)
Title : Kruzheva (2013) HDTVRip_720p
Writing library : x264 core 142 r2431 ac76440
Encoding settings : cabac=1 / ref=9 / deblock=1:-3:-3 / analyse=0x3:0x113 / me=umh / subme=11 / psy=1 / psy_rd=1.05:0.00 / mixed_ref=1 / me_range=48 / chroma_me=1 / trellis=2 / 8x8dct=1 / cqm=0 / deadzone=21,11 / fast_pskip=0 / chroma_qp_offset=-2 / threads=16 / lookahead_threads=4 / sliced_threads=0 / nr=0 / decimate=0 / interlaced=0 / bluray_compat=0 / constrained_intra=0 / bframes=10 / b_pyramid=2 / b_adapt=2 / b_bias=0 / direct=3 / weightb=1 / open_gop=0 / weightp=2 / keyint=250 / keyint_min=25 / scenecut=40 / intra_refresh=0 / rc=2pass / mbtree=0 / bitrate=3373 / ratetol=1.0 / qcomp=0.65 / qpmin=0 / qpmax=69 / qpstep=4 / cplxblur=20.0 / qblur=0.5 / ip_ratio=1.40 / pb_ratio=1.30 / aq=1:0.90
Language : Russian
Default : Yes
Forced : No
Color primaries : BT.709-5, BT.1361, IEC 61966-2-4, SMPTE RP177
Transfer characteristics : BT.709-5, BT.1361
Matrix coefficients : BT.709-5, BT.1361, IEC 61966-2-4 709, SMPTE RP177
Audio
ID : 2
Format : AC-3
Format/Info : Audio Coding 3
Mode extension : CM (complete main)
Format settings, Endianness : Big
Codec ID : A_AC3
Duration : 1h 39mn
Bit rate mode : Constant
Bit rate : 192 Kbps
Channel(s) : 2 channels
Channel positions : Front: L R
Sampling rate : 48.0 KHz
Bit depth : 16 bits
Compression mode : Lossy
Stream size : 137 MiB (5%)
Language : Russian
Default : Yes
Forced : No

Скриншот c названием фильма

[Профиль] [ЛС]
Показать сообщения:    

Текущее время: Сегодня 01:28

Часовой пояс: GMT



Вы не можете начинать темы
Вы не можете отвечать на сообщения
Вы не можете редактировать свои сообщения
Вы не можете удалять свои сообщения
Вы не можете голосовать в опросах
Вы не можете прикреплять файлы к сообщениям
Вы не можете скачивать файлы