Круг / Bleed (2016) WEB-DLRip | L2

 
Автор Сообщение

BOSS ®

Пол:

Стаж: 2 года 1 месяц

Сообщений: 3735

Откуда: ODESSA



Награды: 20 (Подробнее)

Mega Releaser 2 (Количество: 1) Top Keeper 4 (Количество: 1) Top Seeder 2 (Количество: 1)
Торрент-статистика

Создавать темы 07-Апр-2016 16:57

[Цитировать]

Круг / Bleed-

Страна: США
Жанр: Ужасы, триллер
Год выхода: 2016
Продолжительность: 01:19:36-Перевод: Любительский (двухголосый) [den904 & DeadSno]-Режиссер: Трип Рейм / Tripp Rhame-В ролях: Челси Крисп, Райли Смит, Майкл Стэгер, Линдон Смит, Бриттани Исибаси, Элиму Нельсон, Дэвид Йоу, Эрик Абрахам, Бен Эмик.-Описание: Жизнь казалась идеальной — новый дом, новый брак, ребенок скоро родится. Но когда Сара и Мэтт пригласили своих друзей к себе на праздник, ситуация оказалась смертельной, к ним в дом, входит призрак, сгоревший на охоте..-Дополнительная информация: Oтсутствует какая-либо реклама
-Семпл : http://multi-up.com/1096438
Качество видео: WEB-DLRip
Формат файла: AVI-Видео: 640x272 (2.35:1), 23.976 fps, XviD build 65 ~1089 kbps avg, 0.261 bit/pixel
Аудио: 48 kHz, MPEG Layer 3, 2 ch, ~128.00 kbps avg-

MediaInfo

Общее
Полное имя : D:скачаноBleed.2016.HDRip.DVO.avi
Формат : AVI
Формат/Информация : Audio Video Interleave
Размер файла : 698 Мбайт
Продолжительность : 1 ч. 19 м.
Общий поток : 1227 Кбит/сек
Программа кодирования : VirtualDubMod 1.5.10.2 (build 2540/release)
Библиотека кодирования : VirtualDub build 35491/release
Видео
Идентификатор : 0
Формат : MPEG-4 Visual
Профиль формата : Advanced Simple@L5
Параметр BVOP формата : 2
Параметр QPel формата : Нет
Параметр GMC формата : Без точки перехода
Параметр матрицы формата : Default (H.263)
Режим смешивания : Сжатый битовый поток
Идентификатор кодека : XVID
Идентификатор кодека/Подсказка : XviD
Продолжительность : 1 ч. 19 м.
Битрейт : 1089 Кбит/сек
Ширина : 640 пикс.
Высота : 272 пикс.
Соотношение сторон : 2,35:1
Частота кадров : 23,976 кадр/сек
Цветовое пространство : YUV
Подвыборка цветности : 4:2:0
Битовая глубина : 8 бит
Тип развёртки : Прогрессивная
Метод сжатия : С потерями
Бит/(Пиксели*Кадры) : 0.261
Размер потока : 620 Мбайт (89%)
Библиотека кодирования : XviD 65
Аудио
Идентификатор : 1
Формат : MPEG Audio
Версия формата : Version 1
Профиль формата : Layer 3
Режим : Joint stereo
Расширение режима : MS Stereo
Идентификатор кодека : 55
Идентификатор кодека/Подсказка : MP3
Продолжительность : 1 ч. 19 м.
Вид битрейта : Постоянный
Битрейт : 128 Кбит/сек
Каналы : 2 канала
Частота : 48,0 КГц
Метод сжатия : С потерями
Размер потока : 72,9 Мбайт (10%)
Выравнивание : Разделение по промежуткам
Продолжительность промежутка : 42 мс. (1,00 видеокадр)
Время предзагрузки промежутка : 500 ms

Скриншот с названием

Скриншоты

[Профиль] [ЛС]
Показать сообщения:    

Текущее время: Сегодня 22:31

Часовой пояс: GMT



Вы не можете начинать темы
Вы не можете отвечать на сообщения
Вы не можете редактировать свои сообщения
Вы не можете удалять свои сообщения
Вы не можете голосовать в опросах
Вы не можете прикреплять файлы к сообщениям
Вы не можете скачивать файлы