Круг / Bleed (2016) WEB-DL 720p | L2

 
Автор Сообщение

Russian Mafia ®

Пол:

Стаж: 1 год 8 месяцев

Сообщений: 4257



Награды: 10 (Подробнее)

Mega Seeder 5 (Количество: 1) Top Releaser 2 (Количество: 1) За внесенный вклад в развитие сайта (Количество: 1)
Торрент-статистика

Создавать темы 07-Апр-2016 12:19

[Цитировать]

Информация о фильме
Название: Круг
Оригинальное название: Bleed
Год выхода: 2016
Жанр: ужасы, триллер
Режиссер: Tripp Rhame
В ролях: Челси Крисп, Райли Смит, Майкл Стегер, Линдон Смит, Бриттани Исибаси, Элиму Нельсон, Дэвид Йоу, Эрик Абрахам, Denny Ainsworth, Бен Эмик
О фильме: Жизнь казалась идеальной — новый дом, новый брак, ребенок скоро родится. Но когда Сара и Мэтт пригласили своих друзей к себе на праздник, ситуация оказалась смертельной, к ним в дом входит призрак, сгоревший на охоте...

Выпущено: США / Spitfire Studios
Продолжительность: 01:20:07
Озвучивание: Любительское (двухголосое) [den904 & DeadSno]
Примечание: Релиз без рекламы.
Файл
Формат: MKV
Качество: WEB-DL 720p
Видео: MPEG-4 AVC, 3912 kb/s, 1280x538
Аудио: Russian: AC3, 192 kb/s (2 ch) / English: AC3, 384 kb/s (6 ch)
Субтитры: English

MI

Format : Matroska
Format version : Version 2
File size : 2.56 GiB
Duration : 1h 20mn
Overall bit rate : 4 579 Kbps
Encoded date : UTC 2016-04-07 11:49:29
Writing application : mkvmerge v7.8.0 ('River Man') 32bit built on Apr 3 2015 12:11:22
Writing library : libebml v1.3.1 + libmatroska v1.4.2
Video
ID : 1
Format : AVC
Format/Info : Advanced Video Codec
Format profile : Main@L3.1
Format settings, CABAC : No
Format settings, ReFrames : 2 frames
Codec ID : V_MPEG4/ISO/AVC
Duration : 1h 20mn
Bit rate : 3 912 Kbps
Width : 1 280 pixels
Height : 538 pixels
Display aspect ratio : 2.40:1
Frame rate mode : Constant
Frame rate : 23.976 fps
Color space : YUV
Chroma subsampling : 4:2:0
Bit depth : 8 bits
Scan type : Progressive
Bits/(Pixel*Frame) : 0.237
Stream size : 2.19 GiB (85%)
Language : English
Default : Yes
Forced : No
Color range : Limited
Color primaries : BT.709
Transfer characteristics : BT.709
Matrix coefficients : BT.709
Audio #1
ID : 2
Format : AC-3
Format/Info : Audio Coding 3
Mode extension : CM (complete main)
Format settings, Endianness : Big
Codec ID : A_AC3
Duration : 1h 20mn
Bit rate mode : Constant
Bit rate : 192 Kbps
Channel(s) : 2 channels
Channel positions : Front: L R
Sampling rate : 48.0 KHz
Bit depth : 16 bits
Compression mode : Lossy
Stream size : 110 MiB (4%)
Language : Russian
Default : Yes
Forced : No
Audio #2
ID : 3
Format : AC-3
Format/Info : Audio Coding 3
Mode extension : CM (complete main)
Format settings, Endianness : Big
Codec ID : A_AC3
Duration : 1h 20mn
Bit rate mode : Constant
Bit rate : 384 Kbps
Channel(s) : 6 channels
Channel positions : Front: L C R, Side: L R, LFE
Sampling rate : 48.0 KHz
Bit depth : 16 bits
Compression mode : Lossy
Stream size : 220 MiB (8%)
Language : English
Default : No
Forced : No
Text
ID : 4
Format : UTF-8
Codec ID : S_TEXT/UTF8
Codec ID/Info : UTF-8 Plain Text
Language : English
Default : No
Forced : No
Menu
00:00:00.000 : en:Chapter 1
00:09:13.553 : en:Chapter 2
00:20:19.218 : en:Chapter 3
00:30:34.833 : en:Chapter 4
00:39:25.363 : en:Chapter 5
00:50:29.026 : en:Chapter 6
01:00:23.620 : en:Chapter 7
01:12:57.373 : en:Chapter 8

Скриншоты



[Профиль] [ЛС]
Показать сообщения:    

Текущее время: Сегодня 13:05

Часовой пояс: GMT



Вы не можете начинать темы
Вы не можете отвечать на сообщения
Вы не можете редактировать свои сообщения
Вы не можете удалять свои сообщения
Вы не можете голосовать в опросах
Вы не можете прикреплять файлы к сообщениям
Вы не можете скачивать файлы