Круг / Cirkeln (2015) BDRip | А

 
Автор Сообщение

достали все ®

Пол:

Стаж: 1 год 8 месяцев

Сообщений: 6571



Награды: 12 (Подробнее)

Mega Seeder 5 (Количество: 1) Top Releaser 4 (Количество: 1) Mega Releaser 2 (Количество: 1)
Торрент-статистика

Создавать темы 29-Сен-2016 11:58

[Цитировать]

Круг / Cirkeln
Страна: Швеция
Производство: RMV Film
Год выпуска: 2015
Жанр: ужасы, фэнтези, триллер, драма, детектив
Продолжительность: 02:18:10
Режиссер: Леван Акин
Авторы сценария: Леван Акин, Матс Страндберг
В ролях: Йозефин Асплунд, Хелена Энгстрём, Миранда Фридман, Ирма фон Платен, Ханна Асп, Леона Аксельсен, Рут Вега Фернандез
Описание: В маленьком шведском городке ученики местной школы готовятся к началу нового учебного года, ссорятся с друзьями, выясняют отношения с родителями… Жизнь идёт своим чередом, пока однажды в школьном туалете не обнаруживают тело подростка и над городом не встает кроваво-красная луна. Оказывается, город стал местом борьбы добра и зла и теперь только от немногих избранных зависит исход мировой битвы…

Перевод: Авторский (одноголосый, закадровый) | Юрий Живов
Субтитры: отдельными файлами | русские, шведские-Качество: BDRip | исходник Blu-Ray (FRA) - THE CIRCLE CHAPITRE 1 _ LES ÉLUES 2015 1080i BLURAY FRA AVC DTS HD MA
Формат: AVI
Видео кодек: XviD
Аудио кодек: AC3
Видео: 720x304 (2.35:1), 25.000 fps, XviD build 67 ~1 489 kbps avg
Аудио №1: 48.0 kHz, AC3 Dolby Digital, 3/2 (L,C,R,l,r) + LFE ch, ~384 kbps | RUS
Аудио №2: 48.0 kHz, AC3 Dolby Digital, 3/2 (L,C,R,l,r) + LFE ch, ~384 kbps | SWE
Формат субтитров: *SRT
Дата премьеры (мир): 10 февраля 2015

Релиз от: ylnian
Дополнительная информация: сборка дороги - rammzez, русские субтитры - Михаил Васильев

Media Info

General
Полное имя : Cirkeln.2015.BDRip-ylnian.avi
Формат : AVI
Формат/Информация : Audio Video Interleave
Профиль формата : OpenDML
Размер файла : 2,20 Гбайт
Продолжительность : 2 ч. 18 м.
Общий поток : 2275 Кбит/сек
Программа кодирования : VirtualDubMod 1.5.10.2 (build 2540/release)
Библиотека кодирования : VirtualDubMod build 2540/release
Видео
Идентификатор : 0
Формат : MPEG-4 Visual
Профиль формата : Advanced Simple@L5
Параметр BVOP формата : 1
Параметр QPel формата : Нет
Параметр GMC формата : Без точки перехода
Параметр матрицы формата : Default (MPEG)
Идентификатор кодека : XVID
Идентификатор кодека/Подсказка : XviD
Продолжительность : 2 ч. 18 м.
Битрейт : 1489 Кбит/сек
Ширина : 720 пикселей
Высота : 304 пикселя
Соотношение сторон : 2,35:1
Частота кадров : 25,000 кадров/сек
Цветовое пространство : YUV
Субдискретизация насыщенности : 4:2:0
Битовая глубина : 8 бит
Тип развёртки : Прогрессивная
Метод сжатия : С потерями
Бит/(Пиксели*Кадры) : 0.272
Размер потока : 1,44 Гбайт (65%)
Библиотека кодирования : XviD 67
Аудио #1
Идентификатор : 1
Формат : AC-3
Формат/Информация : Audio Coding 3
Расширение режима : CM (complete main)
Параметр Endianness формата : Big
Идентификатор кодека : 2000
Продолжительность : 2 ч. 18 м.
Вид битрейта : Постоянный
Битрейт : 384 Кбит/сек
Каналы : 6 каналов
Расположение каналов : Front: L C R, Side: L R, LFE
Частота : 48,0 КГц
Частота кадров : 31,250 кадров/сек (1536 spf)
Метод сжатия : С потерями
Размер потока : 379 Мбайт (17%)
Выравнивание : Разделение по промежуткам
Продолжительность промежутка : 40 мс. (1,00 видеокадр)
Время предзагрузки промежутка : 500 мс.
Заголовок : RUS - AVO - Jivov
Аудио #2
Идентификатор : 2
Формат : AC-3
Формат/Информация : Audio Coding 3
Расширение режима : CM (complete main)
Параметр Endianness формата : Big
Идентификатор кодека : 2000
Продолжительность : 2 ч. 18 м.
Вид битрейта : Постоянный
Битрейт : 384 Кбит/сек
Каналы : 6 каналов
Расположение каналов : Front: L C R, Side: L R, LFE
Частота : 48,0 КГц
Частота кадров : 31,250 кадров/сек (1536 spf)
Метод сжатия : С потерями
Размер потока : 379 Мбайт (17%)
Выравнивание : Разделение по промежуткам
Продолжительность промежутка : 40 мс. (1,00 видеокадр)
Время предзагрузки промежутка : 500 мс.
Заголовок : Original SWE

Скриншоты

[Профиль] [ЛС]
Показать сообщения:    

Текущее время: Сегодня 04:23

Часовой пояс: GMT



Вы не можете начинать темы
Вы не можете отвечать на сообщения
Вы не можете редактировать свои сообщения
Вы не можете удалять свои сообщения
Вы не можете голосовать в опросах
Вы не можете прикреплять файлы к сообщениям
Вы не можете скачивать файлы