Круг / Cirkeln (2015) BDRip 720p | А, L2, L1

 
Автор Сообщение

достали все ®

Пол:

Стаж: 1 год 8 месяцев

Сообщений: 6613



Награды: 12 (Подробнее)

Mega Releaser 2 (Количество: 1) Mega Seeder 1 (Количество: 1) Top Releaser 4 (Количество: 1)
Торрент-статистика

Создавать темы 29-Сен-2016 11:54

[Цитировать]

Круг / Cirkeln
Страна: Швеция
Производство: RMV Film
Год выпуска: 2015
Жанр: ужасы, фэнтези, триллер, драма, детектив
Продолжительность: 02:18:10
Режиссер: Леван Акин
Авторы сценария: Леван Акин, Матс Страндберг
В ролях: Йозефин Асплунд, Хелена Энгстрём, Миранда Фридман, Ирма фон Платен, Ханна Асп, Леона Аксельсен, Рут Вега Фернандез
Описание: В маленьком шведском городке ученики местной школы готовятся к началу нового учебного года, ссорятся с друзьями, выясняют отношения с родителями… Жизнь идёт своим чередом, пока однажды в школьном туалете не обнаруживают тело подростка и над городом не встает кроваво-красная луна. Оказывается, город стал местом борьбы добра и зла и теперь только от немногих избранных зависит исход мировой битвы…

Перевод: Авторский (одноголосый) | Юрий Живов + Любительский (двухголосый) | den904 & DeadSno + Любительский (одноголосый) | Vaxywod
Субтитры: русские, шведские, английские, датские, финские, норвежские-Качество: BDRip 720p | исходник Blu-Ray (FRA) - THE CIRCLE CHAPITRE 1 _ LES ÉLUES 2015 1080i BLURAY FRA AVC DTS HD MA
Формат: MKV
Видео кодек: AVC
Аудио кодек: AC3
Видео: 1280x536 (2.40:1), 25.000 fps, MPEG-4 AVC ~5 616 kbps avg
Аудио №1: 48.0 kHz, AC3 Dolby Digital, 3/2 (L,C,R,l,r) + LFE ch, ~640 kbps | AVO
Аудио №2: 48.0 kHz, AC3 Dolby Digital, 2/0 (L,R) ch, ~192 | DVO / den904 & DeadSno
Аудио №3: 48.0 kHz, AC3 Dolby Digital, 2/0 (L,R) ch, ~192 | VO / Vaxywod
Аудио №4: 48.0 kHz, AC3 Dolby Digital, 3/2 (L,C,R,l,r) + LFE ch, ~640 kbps | SWE
Формат субтитров: UTF-8 Plain Text
Дата премьеры (мир): 10 февраля 2015

Релиз от: ylnian
Дополнительная информация: сборка дороги - rammzez, русские субтитры - Михаил Васильев

Media Info

General
Уникальный идентификатор : 208127057652322473216391732768710154923 (0x9C93D0319C0B68CDA336AF2FE1D95AAB)
Полное имя : Cirkeln.2015.BDRip.720p-ylnian.mkv
Формат : Matroska
Версия формата : Version 4 / Version 2
Размер файла : 7,03 Гбайт
Продолжительность : 2 ч. 18 м.
Общий поток : 7283 Кбит/сек
Название фильма : Cirkeln.2015.BDRip.720p-ylnian
Дата кодирования : UTC 2016-09-29 07:22:25
Программа кодирования : mkvmerge v9.3.1 ('Mask Machine') 64bit
Библиотека кодирования : libebml v1.3.4 + libmatroska v1.4.5
Видео
Идентификатор : 1
Формат : AVC
Формат/Информация : Advanced Video Codec
Профиль формата : High@L4.1
Параметр CABAC формата : Да
Параметр ReFrames формата : 9 кадров
Идентификатор кодека : V_MPEG4/ISO/AVC
Продолжительность : 2 ч. 18 м.
Битрейт : 5616 Кбит/сек
Ширина : 1280 пикселей
Высота : 536 пикселей
Соотношение сторон : 2,40:1
Режим частоты кадров : Постоянный
Частота кадров : 25,000 кадров/сек
Цветовое пространство : YUV
Субдискретизация насыщенности : 4:2:0
Битовая глубина : 8 бит
Тип развёртки : Прогрессивная
Бит/(Пиксели*Кадры) : 0.327
Размер потока : 5,42 Гбайт (77%)
Заголовок : Cirkeln.2015.BDRip.720p-ylnian
Библиотека кодирования : x264 core 148 r2638 7599210
Настройки программы : cabac=1 / ref=9 / deblock=1:-3:-3 / analyse=0x3:0x133 / me=umh / subme=11 / psy=1 / psy_rd=1.05:0.00 / mixed_ref=1 / me_range=48 / chroma_me=1 / trellis=2 / 8x8dct=1 / cqm=0 / deadzone=21,11 / fast_pskip=0 / chroma_qp_offset=-4 / threads=12 / lookahead_threads=3 / sliced_threads=0 / nr=0 / decimate=1 / interlaced=0 / bluray_compat=0 / constrained_intra=0 / bframes=10 / b_pyramid=2 / b_adapt=2 / b_bias=0 / direct=2 / weightb=1 / open_gop=0 / weightp=2 / keyint=230 / keyint_min=22 / scenecut=40 / intra_refresh=0 / rc_lookahead=60 / rc=crf / mbtree=0 / crf=13.5 / qcomp=0.60 / qpmin=0 / qpmax=69 / qpstep=4 / vbv_maxrate=62500 / vbv_bufsize=78125 / crf_max=0.0 / nal_hrd=none / filler=0 / ip_ratio=1.40 / pb_ratio=1.30 / aq=2:0.80
Язык : Swedish
Default : Да
Forced : Да
Аудио #1
Идентификатор : 2
Формат : AC-3
Формат/Информация : Audio Coding 3
Расширение режима : CM (complete main)
Параметр Endianness формата : Big
Идентификатор кодека : A_AC3
Продолжительность : 2 ч. 18 м.
Вид битрейта : Постоянный
Битрейт : 640 Кбит/сек
Каналы : 6 каналов
Расположение каналов : Front: L C R, Side: L R, LFE
Частота : 48,0 КГц
Частота кадров : 31,250 кадров/сек (1536 spf)
Метод сжатия : С потерями
Размер потока : 632 Мбайт (9%)
Заголовок : AVO (Живов) (АС3 5.1 640 kbps)
Язык : Russian
Default : Да
Forced : Да
Аудио #2
Идентификатор : 3
Формат : AC-3
Формат/Информация : Audio Coding 3
Расширение режима : CM (complete main)
Параметр Endianness формата : Big
Идентификатор кодека : A_AC3
Продолжительность : 2 ч. 18 м.
Вид битрейта : Постоянный
Битрейт : 192 Кбит/сек
Каналы : 2 канала
Расположение каналов : Front: L R
Частота : 48,0 КГц
Частота кадров : 31,250 кадров/сек (1536 spf)
Метод сжатия : С потерями
Размер потока : 190 Мбайт (3%)
Заголовок : DVO (deadsno & den904) (АС3 2.0 192 kbps)
Язык : Russian
Default : Нет
Forced : Нет
Аудио #3
Идентификатор : 4
Формат : AC-3
Формат/Информация : Audio Coding 3
Расширение режима : CM (complete main)
Параметр Endianness формата : Big
Идентификатор кодека : A_AC3
Продолжительность : 2 ч. 18 м.
Вид битрейта : Постоянный
Битрейт : 192 Кбит/сек
Каналы : 2 канала
Расположение каналов : Front: L R
Частота : 48,0 КГц
Частота кадров : 31,250 кадров/сек (1536 spf)
Метод сжатия : С потерями
Размер потока : 190 Мбайт (3%)
Заголовок : VO (Vaxywod) (АС3 2.0 192 kbps)
Язык : Russian
Default : Нет
Forced : Нет
Аудио #4
Идентификатор : 5
Формат : AC-3
Формат/Информация : Audio Coding 3
Расширение режима : CM (complete main)
Параметр Endianness формата : Big
Идентификатор кодека : A_AC3
Продолжительность : 2 ч. 18 м.
Вид битрейта : Постоянный
Битрейт : 640 Кбит/сек
Каналы : 6 каналов
Расположение каналов : Front: L C R, Side: L R, LFE
Частота : 48,0 КГц
Частота кадров : 31,250 кадров/сек (1536 spf)
Метод сжатия : С потерями
Размер потока : 632 Мбайт (9%)
Заголовок : АС3 5.1 640 kbps
Язык : Swedish
Default : Нет
Forced : Нет
Текст #1
Идентификатор : 6
Формат : UTF-8
Идентификатор кодека : S_TEXT/UTF8
Идентификатор кодека/Информация : UTF-8 Plain Text
Продолжительность : 2 ч. 11 м.
Битрейт : 38 бит/сек
Count of elements : 769
Размер потока : 36,9 Кбайт (0%)
Язык : Russian
Default : Нет
Forced : Нет
Текст #2
Идентификатор : 7
Формат : UTF-8
Идентификатор кодека : S_TEXT/UTF8
Идентификатор кодека/Информация : UTF-8 Plain Text
Продолжительность : 2 ч. 14 м.
Битрейт : 27 бит/сек
Count of elements : 790
Размер потока : 27,2 Кбайт (0%)
Язык : Swedish
Default : Нет
Forced : Нет
Текст #3
Идентификатор : 8
Формат : UTF-8
Идентификатор кодека : S_TEXT/UTF8
Идентификатор кодека/Информация : UTF-8 Plain Text
Продолжительность : 2 ч. 11 м.
Битрейт : 27 бит/сек
Count of elements : 901
Размер потока : 26,8 Кбайт (0%)
Язык : English
Default : Нет
Forced : Нет
Текст #4
Идентификатор : 9
Формат : UTF-8
Идентификатор кодека : S_TEXT/UTF8
Идентификатор кодека/Информация : UTF-8 Plain Text
Продолжительность : 2 ч. 11 м.
Битрейт : 27 бит/сек
Count of elements : 747
Размер потока : 26,5 Кбайт (0%)
Язык : Danish
Default : Нет
Forced : Нет
Текст #5
Идентификатор : 10
Формат : UTF-8
Идентификатор кодека : S_TEXT/UTF8
Идентификатор кодека/Информация : UTF-8 Plain Text
Продолжительность : 2 ч. 11 м.
Битрейт : 25 бит/сек
Count of elements : 722
Размер потока : 24,5 Кбайт (0%)
Язык : Finnish
Default : Нет
Forced : Нет
Текст #6
Идентификатор : 11
Формат : UTF-8
Идентификатор кодека : S_TEXT/UTF8
Идентификатор кодека/Информация : UTF-8 Plain Text
Продолжительность : 2 ч. 13 м.
Битрейт : 27 бит/сек
Count of elements : 799
Размер потока : 26,8 Кбайт (0%)
Язык : Norwegian
Default : Нет
Forced : Нет
Меню
00:00:00.000 : sv:00:00:00.000
00:06:44.840 : sv:00:06:44.840
00:20:37.040 : sv:00:20:37.040
00:27:45.800 : sv:00:27:45.800
00:38:41.040 : sv:00:38:41.040
00:48:47.400 : sv:00:48:47.400
00:57:54.480 : sv:00:57:54.480
01:08:39.360 : sv:01:08:39.360
01:21:42.160 : sv:01:21:42.160
01:31:13.600 : sv:01:31:13.600
01:40:29.560 : sv:01:40:29.560
01:54:47.120 : sv:01:54:47.120
02:07:36.120 : sv:02:07:36.120
02:12:16.720 : sv:02:12:16.720

Скриншоты

[Профиль] [ЛС]
Показать сообщения:    

Текущее время: Сегодня 00:35

Часовой пояс: GMT



Вы не можете начинать темы
Вы не можете отвечать на сообщения
Вы не можете редактировать свои сообщения
Вы не можете удалять свои сообщения
Вы не можете голосовать в опросах
Вы не можете прикреплять файлы к сообщениям
Вы не можете скачивать файлы