Круг / Cirkeln (Леван Акин / Levan Akin) [2015, Швеция, Фэнтези, HDRip-AVC] VO (Vaxywod)

 
Автор Сообщение

TorrentFilm ®

Пол:

Стаж: 2 года

Сообщений: 7741



Награды: Нет

Торрент-статистика

Создавать темы 20-Июл-2015 00:11

[Цитировать]

Круг / Cirkeln
Страна: Швеция
Жанр: Фэнтези
Год выпуска: 2015
Продолжительность: 02:23:35
Перевод: Одноголосый закадровый Vaxywod (по оригинальным субтитрам М. Васильева)
Cубтитры: нет
Режиссер: Леван Акин / Levan Akin

В ролях: Рут Вега Фернандез, Хелена Энгстрем, Миранда Фридман, Ирма фон Платен, Леона Аксельсен, Винсент Граль

Описание: В маленьком шведском городке ученики местной школы готовятся к началу нового учебного года, ссорятся с друзьями, выясняют отношения с родителями… Жизнь идет своим чередом, пока однажды в школьном туалете не обнаруживают тело подростка и над городом не встает кроваво-красная луна. Оказывается, город стал местом борьбы добра и зла и теперь только от немногих избранных зависит исход мировой битвы…
Доп. информация: Экранизация одноименного романа Матса Страндберга и Сары Бергмарк Элфгрен. Книга издавалась на русском и доступна в интернете.
Релиз состоялся благодаря ВК группе СКАНДИНАВСКИЙ КАЛЕЙДОСКОП
Исходник релиза: http://torrentfilm.net/forum/viewtopic.php?t=5039966
Отдельный респект за технические консультации по размещению релиза
Сэмпл:http://sendfile.su/1137970
Качество видео: HDRip-AVC
Формат видео: MKV
Видео: AVC, 1152 х 482 (16:9), 24.000 fps, 1500 Kbps
Аудио: Dolby AC3, 48000Hz, stereo, 192kbps

MediaInfo

D:\Êðóã\Cirkeln2015.mkv
General
Unique ID : 239434001143979691605763982750773943810 (0xB4214FAE214B734A85362180A69C1E02)
Complete name : D:\Êðóã\Cirkeln2015.mkv
Format : Matroska
File size : 1.69 GiB
Duration : 2h 23mn
Overall bit rate : 1 683 Kbps
Encoded date : UTC 2015-07-16 21:25:17
Writing application : mkvmerge v5.7.0 ('The Whirlwind') built on Jul 10 2012 18:39:26
Writing library : libebml v1.2.3 + libmatroska v1.3.0
Video #1
ID : 1
Format : AVC
Format/Info : Advanced Video Codec
Format profile : High@L4.1
Format settings, CABAC : Yes
Format settings, ReFrames : 9 frames
Codec ID : V_MPEG4/ISO/AVC
Duration : 2h 23mn
Bit rate : 1 500 Kbps
Width : 1 152 pixels
Height : 482 pixels
Display aspect ratio : 2.40:1
Frame rate : 24.000 fps
Color space : YUV
Chroma subsampling : 4:2:0
Bit depth : 8 bits
Scan type : Progressive
Bits/(Pixel*Frame) : 0.113
Stream size : 1.46 GiB (87%)
Writing library : x264 core 142 r2479 dd79a61
Encoding settings : cabac=1 / ref=9 / deblock=1:-3:-3 / analyse=0x3:0x133 / me=umh / subme=9 / psy=1 / psy_rd=1.00:0.00 / mixed_ref=1 / me_range=24 / chroma_me=1 / trellis=2 / 8x8dct=1 / cqm=0 / deadzone=21,11 / fast_pskip=0 / chroma_qp_offset=-2 / threads=6 / lookahead_threads=1 / sliced_threads=0 / nr=0 / decimate=1 / interlaced=0 / bluray_compat=0 / constrained_intra=0 / bframes=6 / b_pyramid=2 / b_adapt=2 / b_bias=0 / direct=3 / weightb=1 / open_gop=0 / weightp=2 / keyint=240 / keyint_min=24 / scenecut=40 / intra_refresh=0 / rc_lookahead=60 / rc=abr / mbtree=1 / bitrate=1500 / ratetol=1.0 / qcomp=0.60 / qpmin=0 / qpmax=69 / qpstep=4 / vbv_maxrate=62500 / vbv_bufsize=78125 / nal_hrd=none / filler=0 / ip_ratio=1.40 / aq=2:1.00
Color primaries : BT.709-5, BT.1361, IEC 61966-2-4, SMPTE RP177
Transfer characteristics : BT.709-5, BT.1361
Matrix coefficients : BT.709-5, BT.1361, IEC 61966-2-4 709, SMPTE RP177
Audio #2
ID : 2
Format : AC-3
Format/Info : Audio Coding 3
Mode extension : CM (complete main)
Format settings, Endianness : Big
Codec ID : A_AC3
Duration : 2h 23mn
Bit rate mode : Constant
Bit rate : 192 Kbps
Channel(s) : 2 channels
Channel positions : Front: L R
Sampling rate : 48.0 KHz
Bit depth : 16 bits
Compression mode : Lossy
Stream size : 197 MiB (11%)

Скриншот c названием фильма

Скриншоты





[Профиль] [ЛС]
Показать сообщения:    

Текущее время: Сегодня 04:27

Часовой пояс: GMT



Вы не можете начинать темы
Вы не можете отвечать на сообщения
Вы не можете редактировать свои сообщения
Вы не можете удалять свои сообщения
Вы не можете голосовать в опросах
Вы не можете прикреплять файлы к сообщениям
Вы не можете скачивать файлы