Круг / Cirkeln (Леван Акин / Levan Akin) [2015, Швеция, фэнтези, HDRip-AVC] + Sub Rus + Original Swe

 
Автор Сообщение

TorrentFilm ®

Пол:

Стаж: 2 года

Сообщений: 7741



Награды: Нет

Торрент-статистика

Создавать темы 13-Июл-2015 00:06

[Цитировать]

Круг / Cirkeln
Страна: Швеция
Жанр: фэнтези
Год выпуска: 2015
Продолжительность: 02:23:35
Перевод: Субтитры (М.Васильев)
Cубтитры: русские
Оригинальная аудиодорожка: шведский
Режиссер: Леван Акин / Levan Akin
В ролях: Хелена Энгстрем, Миранда Фридман, Ирма фон Платен, Леона Аксельсен, Винсент Граль
Описание: В маленьком шведском городке ученики местной школы готовятся к началу нового учебного года, ссорятся с друзьями, выясняют отношения с родителями… Жизнь идет своим чередом, пока однажды в школьном туалете не обнаруживают тело подростка и над городом не встает кроваво-красная луна. Оказывается, город стал местом борьбы добра и зла и теперь только от немногих избранных зависит исход мировой битвы…
Доп. информация: Экранизация одноименного романа Матса Страндберга и Сары Бергмарк Элфгрен. Книга издавалась на русском и доступна в интернете.
Авторы фильма не стали снимать аттракцион с кучей спецэффектов, а сосредоточились на создании атмосферы.
Ну, и не стоит забывать, что это...Швеция. А у них на все свои порядки и вкусы.
Релиз состоялся благодаря ВК группе СКАНДИНАВСКИЙ КАЛЕЙДОСКОП
Сэмпл
IMDB
КИНОПОИСК
Качество видео: HDRip-AVC (рип предоставлен этим пользователем)
Формат видео: MKV
Видео: 1500 Kbps, 1152x482 (2.40:1), 24 000 fps, AVC
Аудио: 384 Kbps, 48.0 KHz, 16 bits, 2 ch, AC 3
Формат субтитров: softsub (SRT)

MediaInfo

General
Unique ID : 236521769441461090217288618201968225243 (0xB1F06F925649C459826EDE2DB90B2BDB)
Complete name : C:\Users\Владелец\Desktop\Круг.mkv
Format : Matroska
Format version : Version 4 / Version 2
File size : 1.88 GiB
Duration : 2h 23mn
Overall bit rate : 1 876 Kbps
Encoded date : UTC 2015-07-09 19:08:18
Writing application : mkvmerge v7.8.0 ('River Man') 64bit built on Mar 27 2015 16:31:37
Writing library : Lavf55.12.0
Video
ID : 1
Format : AVC
Format/Info : Advanced Video Codec
Format profile : High@L4.1
Format settings, CABAC : Yes
Format settings, ReFrames : 9 frames
Codec ID : V_MPEG4/ISO/AVC
Duration : 2h 23mn
Bit rate : 1 500 Kbps
Width : 1 152 pixels
Height : 482 pixels
Display aspect ratio : 2.40:1
Frame rate mode : Constant
Frame rate : 24.000 fps
Color space : YUV
Chroma subsampling : 4:2:0
Bit depth : 8 bits
Scan type : Progressive
Bits/(Pixel*Frame) : 0.113
Stream size : 1.46 GiB (78%)
Writing library : x264 core 142 r2479 dd79a61
Encoding settings : cabac=1 / ref=9 / deblock=1:-3:-3 / analyse=0x3:0x133 / me=umh / subme=9 / psy=1 / psy_rd=1.00:0.00 / mixed_ref=1 / me_range=24 / chroma_me=1 / trellis=2 / 8x8dct=1 / cqm=0 / deadzone=21,11 / fast_pskip=0 / chroma_qp_offset=-2 / threads=6 / lookahead_threads=1 / sliced_threads=0 / nr=0 / decimate=1 / interlaced=0 / bluray_compat=0 / constrained_intra=0 / bframes=6 / b_pyramid=2 / b_adapt=2 / b_bias=0 / direct=3 / weightb=1 / open_gop=0 / weightp=2 / keyint=240 / keyint_min=24 / scenecut=40 / intra_refresh=0 / rc_lookahead=60 / rc=abr / mbtree=1 / bitrate=1500 / ratetol=1.0 / qcomp=0.60 / qpmin=0 / qpmax=69 / qpstep=4 / vbv_maxrate=62500 / vbv_bufsize=78125 / nal_hrd=none / filler=0 / ip_ratio=1.40 / aq=2:1.00
Default : Yes
Forced : No
_STATISTICS_WRITING_APP : mkvmerge v7.8.0 ('River Man') 64bit built on Mar 27 2015 16:31:37
_STATISTICS_WRITING_DATE_UTC : 2015-07-09 19:08:18
_STATISTICS_TAGS : BPS DURATION NUMBER_OF_FRAMES NUMBER_OF_BYTES
DURATION : 02:23:35.042000000
NUMBER_OF_FRAMES : 206761
NUMBER_OF_BYTES : 1604577099
Color primaries : BT.709
Transfer characteristics : BT.709
Matrix coefficients : BT.709
Audio
ID : 2
Format : AC-3
Format/Info : Audio Coding 3
Format profile : Dolby Digital
Mode extension : CM (complete main)
Format settings, Endianness : Big
Codec ID : A_AC3
Duration : 2h 23mn
Bit rate mode : Constant
Bit rate : 384 Kbps
Channel(s) : 2 channels
Channel positions : Front: L R
Sampling rate : 48.0 KHz
Bit depth : 16 bits
Compression mode : Lossy
Delay relative to video : -5ms
Stream size : 394 MiB (20%)
Title : Stereo
Language : Swedish
Default : Yes
Forced : No
_STATISTICS_WRITING_APP : mkvmerge v7.8.0 ('River Man') 64bit built on Mar 27 2015 16:31:37
_STATISTICS_WRITING_DATE_UTC : 2015-07-09 19:08:18
_STATISTICS_TAGS : BPS DURATION NUMBER_OF_FRAMES NUMBER_OF_BYTES
DURATION : 02:23:35.072000000
NUMBER_OF_FRAMES : 269221
NUMBER_OF_BYTES : 413523456

Скриншот c названием фильма

Скриншоты





Титры

1
00:00:27,080 --> 00:00:28,955
Элиас...
2
00:00:34,497 --> 00:00:37,122
Ты можешь обьяснить,
что происходит?
3
00:00:48,914 --> 00:00:52,914
Учебный год только начался,
а у тебя столько прогулов.
4
00:01:09,331 --> 00:01:13,290
- Что такое?
- Голова болит.
5
00:01:17,332 --> 00:01:20,415
Учитель сказал, что ты
нарисовал свой автопортрет.
6
00:01:26,790 --> 00:01:29,457
Он еще не закончен.
7
00:01:29,582 --> 00:01:34,832
Я хотел нарисовать еще лес
и красивого ежика.
8
00:01:45,749 --> 00:01:48,750
Я знаю, что случилось
прошлой зимой.
9
00:01:56,583 --> 00:01:59,583
Мне уже лучше.
10
00:02:00,792 --> 00:02:03,000
Я не хочу это вспоминать.
11
00:02:05,208 --> 00:02:08,000
Это больно.
12
00:02:20,667 --> 00:02:22,834
Извини...
13
00:02:35,335 --> 00:02:37,918
Можешь идти.
14
00:03:01,000 --> 00:03:03,000
"СОСУ ЧЛЕН".
15
00:07:47,304 --> 00:07:49,721
Тихо.
16
00:07:49,846 --> 00:07:53,096
Мама работала всю ночь.
17
00:10:16,934 --> 00:10:18,726
Анна - Карина.
18
00:10:20,976 --> 00:10:23,226
Анна - Карина.
19
00:10:32,560 --> 00:10:35,560
Ты чего не отвечаешь?
20
00:10:37,435 --> 00:10:39,685
Я спрашиваю.
21
00:10:39,810 --> 00:10:42,352
Чего такая кислая?
22
00:10:42,477 --> 00:10:45,977
Не грусти.
Ты же такая красивая.
23
00:10:46,102 --> 00:10:49,144
И сексуальная.
24
00:10:49,269 --> 00:10:54,102
- Погляди на Кевина. Он тебя хочет.
- Заткнись.
25
00:10:59,352 --> 00:11:01,352
Ты, пугало...
26
00:11:01,477 --> 00:11:04,852
Эрик сделал тебе комплимент.
Что надо сказать?
[Профиль] [ЛС]
Показать сообщения:    

Текущее время: Сегодня 00:48

Часовой пояс: GMT



Вы не можете начинать темы
Вы не можете отвечать на сообщения
Вы не можете редактировать свои сообщения
Вы не можете удалять свои сообщения
Вы не можете голосовать в опросах
Вы не можете прикреплять файлы к сообщениям
Вы не можете скачивать файлы