Круг восьми / Circle of Eight (Стивен Крегг / Stephen Cragg) [2009, США, ужасы, детектив, DVDRip] MVO (Paramound Channel) + Original Eng

 
Автор Сообщение

painkiller ®

Стаж: 2 года 3 месяца

Сообщений: 582



Награды: Нет

Торрент-статистика

Создавать темы 23-Авг-2014 01:02

[Цитировать]

Круг восьми / Circle of Eight
Страна: США
Студия: Paramount Pictures Digital Entertainment, Mountain Dew Green Label Studios, Milchan / Van Eyssen
Жанр: ужасы, детектив
Год выпуска: 2009
Продолжительность: 01:23:49
Перевод: Профессиональный (многоголосый закадровый) Paramound Channel
Cубтитры: нет
Оригинальная аудиодорожка: английский
Режиссер: Стивен Крегг / Stephen Cragg
В ролях: Джон Бишоп, Кирк Бовилл, Райан Дум, Остин Хигсмит, Спенсер Хилл, Джесси Джонсон, Даррен Рейхер, Джош Келли, Катя Килинг, Кэти Лоус
Описание: Джессика поселяется на верхнем этаже восьмиэтажного здания «Данте» в Лос-Анджелесе. Другие жильцы сначала кажутся дружелюбными, но затем, когда она становится свидетелем ужасных смертей, она объединяется с соседом Эваном, чтобы разгадать тайну и выяснить как она связана с этим местом.
II Сэмпл II IMDB II
Доп. информация: За видеоряд спасибо intellect
Звук записан с т/к Paramound Channel
Оригинальная дорога найдена в сети (Circle Of Eight 2009.DVDRip.XviD-M00DY)
Качество видео: DVDRip
Формат видео: AVI
Видео: Xvid 720x400 (16:9) 23.976fps Bit rate 1942Kbps b/p 0.281
Аудио 1: AC3 48.0 KHz 2ch. 192kbps rus mvo
Аудио 2: AC3 48.0 KHz 2ch. 192kbps eng

MediaInfo

Общее
Полное имя : E:\torrent\Circle.Of.Eight.2009.DVDRip.avi
Формат : AVI
Формат/Информация : Audio Video Interleave
Размер файла : 1,37 Гбайт
Продолжительность : 1 ч. 23 м.
Общий поток : 2341 Кбит/сек
Программа кодирования : VirtualDubMod 1.5.10.3 (build 2550/release)
Библиотека кодирования : VirtualDubMod build 2550/release
Видео
Идентификатор : 0
Формат : MPEG-4 Visual
Профиль формата : Advanced Simple@L5
Параметр BVOP формата : 2
Параметр QPel формата : Нет
Параметр GMC формата : Без точки перехода
Параметр матрицы формата : Выборочная
Идентификатор кодека : XVID
Идентификатор кодека/Подсказка : XviD
Продолжительность : 1 ч. 23 м.
Битрейт : 1942 Кбит/сек
Ширина : 720 пикселей
Высота : 400 пикселей
Соотношение сторон : 16:9
Частота кадров : 23,976 кадра/сек
Цветовое пространство : YUV
Субдискретизация насыщенности : 4:2:0
Битовая глубина : 8 бит
Тип развёртки : Прогрессивная
Метод сжатия : С потерями
Бит/(Пиксели*Кадры) : 0.281
Размер потока : 1,14 Гбайт (83%)
Библиотека кодирования : XviD 58
Аудио #1
Идентификатор : 1
Формат : AC-3
Формат/Информация : Audio Coding 3
Расширение режима : CM (complete main)
Параметр Endianness формата : Big
Идентификатор кодека : 2000
Продолжительность : 1 ч. 23 м.
Вид битрейта : Постоянный
Битрейт : 192 Кбит/сек
Каналы : 2 канала
Расположение каналов : Front: L R
Частота : 48,0 КГц
Битовая глубина : 16 бит
Метод сжатия : С потерями
Размер потока : 115 Мбайт (8%)
Выравнивание : Разделение по промежуткам
Продолжительность промежутка : 42 мс. (1,00 видеокадр)
Время предзагрузки промежутка : 500 мс.
Аудио #2
Идентификатор : 2
Формат : AC-3
Формат/Информация : Audio Coding 3
Расширение режима : CM (complete main)
Параметр Endianness формата : Big
Идентификатор кодека : 2000
Продолжительность : 1 ч. 23 м.
Вид битрейта : Постоянный
Битрейт : 192 Кбит/сек
Каналы : 2 канала
Расположение каналов : Front: L R
Частота : 48,0 КГц
Битовая глубина : 16 бит
Метод сжатия : С потерями
Размер потока : 115 Мбайт (8%)
Выравнивание : Разделение по промежуткам
Продолжительность промежутка : 42 мс. (1,00 видеокадр)
Время предзагрузки промежутка : 500 мс.

Скриншот c названием фильма

Скриншоты


[Профиль] [ЛС]

Создавать темы 06-Авг-2015 23:06 (спустя 11 месяцев 14 дней)

Топик был перенесен из форума Фильмы до 2014 года в форум Фильмы до 2012 года
sergej644
 

Создавать темы 12-Июн-2016 08:48 (спустя 1 год 9 месяцев)

Топик был перенесен из форума Фильмы 2011 года в форум Фильмы 2009 года
Russian Mafia
 
Кто просматривает тему:

Показать сообщения:    

Текущее время: Сегодня 11:52

Часовой пояс: GMT



Вы не можете начинать темы
Вы не можете отвечать на сообщения
Вы не можете редактировать свои сообщения
Вы не можете удалять свои сообщения
Вы не можете голосовать в опросах
Вы не можете прикреплять файлы к сообщениям
Вы не можете скачивать файлы