Кругосветное путешествие Мартена, 01 - 10 серия / Martin autour du monde (Fred Cebron) [2013, Документальный, HDTV 1080i]

 
Автор Сообщение

TorrentFilm ®

Пол:

Стаж: 2 года

Сообщений: 7741



Награды: Нет

Торрент-статистика

Создавать темы 14-Апр-2015 00:04

[Цитировать]

Кругосветное путешествие Мартена, 01 - 10 серия / Martin autour du monde
Год выпуска: 2013
Страна: Франция
Жанр: Документальный
Продолжительность: 00:26:00 серия
Перевод: Профессиональный (дублированный)
Режиссер: Fred Cebron
Описание: Есть семьи, которые предпочитают не ждать, пока их дети вырастут для путешествий. При правильном планировании отдыха вы можете прекрасно провести время всей семьёй и осуществить свои мечты, исследуя улицы и переулки разных городов и их окрестностей. Этот сериал для тех, кто хочет открыть для себя новые места, вдохновить и поддержать свои семьи, которые выбирают автомобильные поездки в качестве семейного отдыха.
Путешественник Мартен и его семья побывает в Боливии и Чили, получит советы от народных целителей в Андах, встретится с местными жителями в пустыне Атакама, вдохнёт влажный воздух тропических лесов Амазонки. А также посетит крупные города Южной Америки, такие как Рио-де-Жанейро, Сан-Паулу и Рио-Гранде.
Следуйте за приключениями Мартена и его семьи по всему миру!
Кругосветное путешествие Мартена, 1 эп. Южная Америка. Аргентина
Кругосветное путешествие Мартена, 2 эп. Южная Америка. Аргентина
Кругосветное путешествие Мартена, 3 эп. Боливия
Кругосветное путешествие Мартена, 4 эп. Боливия
Кругосветное путешествие Мартена, 5 эп. Бразилия
Кругосветное путешествие Мартена, 6 эп. Бразилия
Кругосветное путешествие Мартена, 7 эп. Чили
Кругосветное путешествие Мартена, 8 эп. Перу
Кругосветное путешествие Мартена, 9 эп. Колумбия
Кругосветное путешествие Мартена, 10 эп. Колумбия
Тип релиза: HDTV 1080i
Контейнер: TS
Видео: H264; 1920x1080 (16:9); 25.000 fps; ~10.7 Mbps
Аудио: MPEG Audio 48000Hz stereo 192 Кбит/сек

MediaInfo

GeneralID : 1 (0x1)Complete name : Q:\ДИСК-1\Кругосветное путешествие Мартена, 01 - 10 серия_1080i_[RUTRACKER.ORG]_by kuzmichm2196\Кругосветное путешествие Мартена, 5 эп. Бразилия(.tsFormat : MPEG-TSFile size : 2.05 GiBDuration : 25mn 38sOverall bit rate mode : VariableOverall bit rate : 11.5 Mbps
VideoID : 2152 (0x868)Menu ID : 1 (0x1)Format : AVCFormat/Info : Advanced Video CodecFormat profile : High@L4.0Format settings, CABAC : YesFormat settings, ReFrames : 4 framesCodec ID : 27Duration : 25mn 38sBit rate : 10.7 MbpsWidth : 1 920 pixelsHeight : 1 080 pixelsDisplay aspect ratio : 16:9Frame rate : 25.000 fpsStandard : ComponentColor space : YUVChroma subsampling : 4:2:0Bit depth : 8 bitsScan type : InterlacedBits/(Pixel*Frame) : 0.206Stream size : 1.92 GiB (93%)Color primaries : BT.709Transfer characteristics : BT.709Matrix coefficients : BT.709
AudioID : 2155 (0x86B)Menu ID : 1 (0x1)Format : MPEG AudioFormat version : Version 1Format profile : Layer 2Codec ID : 3Duration : 25mn 38sBit rate mode : ConstantBit rate : 192 KbpsChannel(s) : 2 channelsSampling rate : 48.0 KHzCompression mode : LossyStream size : 35.2 MiB (2%)Language : Russian

Скриншоты


Релиз группы:
[Профиль] [ЛС]
Показать сообщения:    

Текущее время: Сегодня 10:33

Часовой пояс: GMT



Вы не можете начинать темы
Вы не можете отвечать на сообщения
Вы не можете редактировать свои сообщения
Вы не можете удалять свои сообщения
Вы не можете голосовать в опросах
Вы не можете прикреплять файлы к сообщениям
Вы не можете скачивать файлы