Крошка из Беверли-Хиллз / Beverly Hills Chihuahua (Раджа Госнелл / Raja Gosnell) [2008, США, драма, мелодрама, комедия, приключения, семейный, SATRip] [Full Screen] Dub

 
Автор Сообщение

TorrentFilm ®

Пол:

Стаж: 2 года

Сообщений: 7741



Награды: Нет

Торрент-статистика

Создавать темы 05-Мар-2016 00:09

[Цитировать]

Крошка из Беверли-Хиллз / Beverly Hills Chihuahua / Full Screen
Страна: США
Жанр: драма, мелодрама, комедия, приключения, семейный
Год выпуска: 2008
Продолжительность: 01:22:41
Перевод: Профессиональный (дублированный)
Cубтитры: нет
Оригинальная аудиодорожка: нет
Режиссер: Раджа Госнелл / Raja Gosnell
В ролях: Пайпер Перабо, Маноло Кардона, Джейми Ли Кертис, Хосе Мария Язпик, Али Хиллис, Мори Стерлинг, Хесус Очоа, Ник Зэйно, Хуан Карлос Мартин
Описание: Эксцентричная и богатая тетушка Вив (Джейми Ли Кертис) души не чает в своей собачке Хлои, и готова в прямом смысле слова осыпать ее бриллиантами и кормить из золотых тарелок. Но однажды капризная Хлои, привыкшая к роскошной жизни в Беверли-Хиллз, ухитряется потеряться посередине шумного Мехико – без знакомых, без средств к существованию и без малейшего понятия, где провести ночь и чем поужинать. Но даже если ты не знаешь испанского языка, к югу от американской границы у тебя все равно найдутся настоящие друзья.
Доп. информация: Наполнение кадра отличается от BD http://screenshotcomparison.com/comparison/164359
Сэмпл: http://multi-up.com/1091757
Качество видео: SATRip
Формат видео: AVI
Видео: MPEG4, XviD, 720x544 (4:3), 25.000 fps, 2 312 Kbps (0.236 bit/pixel)
Аудио: AC-3, 48.0 KHz, 2 ch, 192 Kbps, CBR

MediaInfo

бщее
Полное имя : N:\Крошка из Беверли-Хиллз.avi
Формат : AVI
Формат/Информация : Audio Video Interleave
Размер файла : 1,45 Гбайт
Продолжительность : 1 ч. 22 м.
Общий поток : 2514 Кбит/сек
Название фильма : Крошка из Беверли-Хиллз / Beverly Hills Chihuahua (2008)
Программа кодирования : VirtualDubMod 1.5.10.2 (build 2540/release)
Библиотека кодирования : VirtualDubMod build 2540/release
Авторское право : miha2154
Видео
Идентификатор : 0
Формат : MPEG-4 Visual
Профиль формата : Advanced Simple@L5
Параметр BVOP формата : 1
Параметр QPel формата : Нет
Параметр GMC формата : Без точки перехода
Параметр матрицы формата : Выборочная
Идентификатор кодека : XVID
Идентификатор кодека/Подсказка : XviD
Продолжительность : 1 ч. 22 м.
Битрейт : 2312 Кбит/сек
Ширина : 720 пикселей
Высота : 544 пикселя
Соотношение сторон : 4:3
Частота кадров : 25,000 кадров/сек
Цветовое пространство : YUV
Субдискретизация насыщенности : 4:2:0
Битовая глубина : 8 бит
Тип развёртки : Прогрессивная
Метод сжатия : С потерями
Бит/(Пиксели*Кадры) : 0.236
Размер потока : 1,34 Гбайт (92%)
Библиотека кодирования : XviD 65
Аудио
Идентификатор : 1
Формат : AC-3
Формат/Информация : Audio Coding 3
Расширение режима : CM (complete main)
Параметр Endianness формата : Big
Идентификатор кодека : 2000
Продолжительность : 1 ч. 22 м.
Вид битрейта : Постоянный
Битрейт : 192 Кбит/сек
Каналы : 2 канала
Расположение каналов : Front: L R
Частота : 48,0 КГц
Частота кадров : 31,250 кадров/сек (1536 spf)
Метод сжатия : С потерями
Размер потока : 114 Мбайт (8%)
Выравнивание : Разделение по промежуткам
Продолжительность промежутка : 40 мс. (1,00 видеокадр)
Время предзагрузки промежутка : 500 мс.
Заголовок : Профессиональный (полное дублирование)

Скриншоты


[Профиль] [ЛС]

Создавать темы 12-Июн-2016 08:50 (спустя 3 месяца 7 дней)

Топик был перенесен из форума Фильмы 2011 года в форум Фильмы 2006-2008 года
Russian Mafia
 
Кто просматривает тему:

Форум Тема Автор Размер
Мировая классика Чарльз Диккенс - Крошка Доррит [Вячеслав Герасимов, 2014] Magnat 1.77 GB
Показать сообщения:    

Текущее время: Сегодня 20:31

Часовой пояс: GMT



Вы не можете начинать темы
Вы не можете отвечать на сообщения
Вы не можете редактировать свои сообщения
Вы не можете удалять свои сообщения
Вы не можете голосовать в опросах
Вы не можете прикреплять файлы к сообщениям
Вы не можете скачивать файлы