Кровь побеждённых / Il sangue dei vinti (Микеле Соави / Michele Soavi) [2008, Италия, драма, исторический, DVDRip] Sub Rus + original Ita

 
Автор Сообщение

TorrentFilm ®

Пол:

Стаж: 2 года

Сообщений: 7741



Награды: Нет

Торрент-статистика

Создавать темы 27-Май-2015 00:03

[Цитировать]

Кровь побеждённых / Il sangue dei vinti
Жанр: драма, исторический
Год выпуска: 2008
Страна: Италия
Продолжительность: 110 мин
Перевод: субтитры (ladySpais)
Cубтитры: русские, неотключаемые
Режиссер: Микеле Соави / Michele Soavi
В ролях: Микеле Плачидо (Michele Placido), Барбора Бобулова (Barbora Bobulova), Алессандро Прециози (Alessandro Preziosi), Филипп Лерой (Philippe Leroy), Джованна Ралли (Giovanna Ralli), Стефано Дионизи (Stefano Dionisi), Алина Неделея (Alina Nedelea), Валерио Бинаско (Valerio Binasco), Анна Катерина Морариу (Ana Caterina Morariu), Массимо Поджо (Massimo Poggio) и др.
Описание: Вторая мировая война подходит к концу, в Италии начинается гражданская война… Но в это тяжелое и противоречивое время комиссар полиции Франческо Дольяни (Микеле Плачидо) продолжает выполнять свой долг и расследовать убийства. Он с одержимостью приступает к распутыванию таинственного убийства молодой женщины, в том числе для того, чтобы избежать необходимости выбирать – поддержать сторону фашистов, в ряды которых вступила его младшая сестра Лючия (Алина Неделея) или сторону партизан, как это сделал брат Этторе (Алессандро Прециози).
Пронзительная драма, показывающая весь ужас войны через историю одной семьи.
Дополнительная информация: Фильм снят на основе одноименной исторической монографии Джампаоло Пансы и был впервые представлен во внеконкурсной программе кинофестиваля в Риме в 2008 году.
Фильм был выпущен на DVD, а так же по итальянскому каналу Rai1 транслировалась двухсерийная телевизионная версия.
!!Если у кого-то есть эта расширенная версия, просьба поделиться.
Качество видео: DVDRip
Формат видео: AVI
Видео: 704x288 (2,4:1), 25 fps, XviD, 1521 kbps, 0.3 bit/pixel
Аудио: 48 kHz, AC3, 6 ch (Front: L C R, Side: L R, LFE), 448 kbps
Сэмпл

Отчёт MediaInfo

Общее
Полное имя : G:\Download\Il sangue dei vinti\Il sangue dei vinti_hardsub.avi
Формат : AVI
Формат/Информация : Audio Video Interleave
Размер файла : 1,61 Гбайт
Продолжительность : 1 ч. 56 м.
Общий поток : 1977 Кбит/сек
Программа кодирования : VirtualDubMod 1.5.10.2 (build 2540/release)
Библиотека кодирования : VirtualDubMod build 2540/release
Видео
Идентификатор : 0
Формат : MPEG-4 Visual
Профиль формата : Advanced Simple@L5
Параметр BVOP формата : 1
Параметр QPel формата : Нет
Параметр GMC формата : Без точки перехода
Параметр матрицы формата : Выборочная
Режим смешивания : Сжатый битовый поток
Идентификатор кодека : XVID
Идентификатор кодека/Подсказка : XviD
Продолжительность : 1 ч. 56 м.
Битрейт : 1521 Кбит/сек
Ширина : 704 пикселя
Высота : 288 пикселей
Соотношение сторон : 2,40:1
Частота кадров : 25,000 кадров/сек
Цветовое пространство : YUV
Субдискретизация насыщенности : 4:2:0
Битовая глубина : 8 бит
Тип развёртки : Прогрессивная
Метод сжатия : С потерями
Бит/(Пиксели*Кадры) : 0.300
Размер потока : 1,24 Гбайт (77%)
Библиотека кодирования : XviD 64
Аудио
Идентификатор : 1
Формат : AC-3
Формат/Информация : Audio Coding 3
Расширение режима : CM (complete main)
Параметр Endianness формата : Big
Идентификатор кодека : 2000
Продолжительность : 1 ч. 56 м.
Вид битрейта : Постоянный
Битрейт : 448 Кбит/сек
Каналы : 6 каналов
Расположение каналов : Front: L C R, Side: L R, LFE
Частота : 48,0 КГц
Битовая глубина : 16 бит
Метод сжатия : С потерями
Размер потока : 373 Мбайт (23%)
Выравнивание : Разделение по промежуткам
Продолжительность промежутка : 40 мс. (1,00 видеокадр)
Время предзагрузки промежутка : 500 мс.
От переводчика: Немецкая речь, присутствующая в фильме, переведена только там, где несёт смысловую нагрузку.
Выражаю огромнейшую благодарность Карине Стребковой за тайминг и оформление субтитров
и dimmm2v за подготовку DVDrip'а!!
Желаю всем приятного просмотра!
[Профиль] [ЛС]

Создавать темы 06-Авг-2015 22:31 (спустя 2 месяца 10 дней)

Топик был перенесен из форума Фильмы до 2014 года в форум Фильмы до 2012 года
sergej644
 

Создавать темы 12-Июн-2016 08:52 (спустя 1 год)

Топик был перенесен из форума Фильмы 2011 года в форум Фильмы 2006-2008 года
Russian Mafia
 
Кто просматривает тему:

Форум Тема Автор Размер
Metal (Хэви Метал) Ария - Кровь За Кровь 25 лет - 2016, MP3, 320 kbps достали все 226 MB
BBC BBC: Кельты: Кровью и железом с Элис Робертс и Нилом Оливером / The Celts: Blood, Iron and Sacrifice with Alice Roberts and Neil Oliver [серии 1-3 из 3] (Jeremy Hall) [2015 г., Документ... skorpionN 4.16 GB
BBC BBC: Кровь и золото. Становление Испании с Саймоном Себагом-Монтефиоре / Blood and Gold: The Making of Spain with Simon Sebag Montefiore [серии 1-3 из 3] (Marion Milne) [2015 г., Документал... skorpionN 5.43 GB
Action FPS (1st Person) Painkiller Black Edition / Painkiller: Крещенный кровью + Painkiller: Битва за Пределами Ада [L|GOG] [ENG] (2004) (v.1.64) TorrentFilm 3.67 GB
BBC Viasat History: Кельты: Кровью и железом с Элис Робертс и Нилом Оливером / The Celts: Blood, Iron and Sacrifice with Alice Roberts and Neil Oliver [серии 1-3 из 3] (Jeremy Hal... skorpionN 2.69 GB
Зарубежные мультфильмы Бэтмен: Дурная кровь / Batman: Bad Blood (2016) BDRip 720p | LE-Production достали все 2.17 GB
Зарубежные мультфильмы Бэтмен: Дурная кровь / Batman: Bad Blood (2016) BDRip | LE-Production достали все 1.37 GB
Зарубежные мультфильмы Бэтмен: Дурная кровь / Batman: Bad Blood (2016) BDRip от Twi7ter | P Russian Mafia 1.37 GB
Показать сообщения:    

Текущее время: Сегодня 22:29

Часовой пояс: GMT



Вы не можете начинать темы
Вы не можете отвечать на сообщения
Вы не можете редактировать свои сообщения
Вы не можете удалять свои сообщения
Вы не можете голосовать в опросах
Вы не можете прикреплять файлы к сообщениям
Вы не можете скачивать файлы