Кровь и кость / Blood and Bone (Бен Рэмси / Ben Ramsey) [2009, США, Боевик, драма, BDRip] AVO (Дольский)

 
Автор Сообщение

TorrentFilm ®

Пол:

Стаж: 2 года

Сообщений: 7741



Награды: Нет

Торрент-статистика

Создавать темы 07-Янв-2015 00:01

[Цитировать]

Кровь и кость / Blood and Bone- Год выпуска: 2009
Выпущено: США / Michael Mailer Films, Remarkable Films
Жанр: боевик, драма
Продолжительность: 01:33:26
Перевод: Авторский (одноголосый закадровый) Андрей Дольский
Cубтитры: нет-Режиссер:
Бен Рэмси / Ben Ramsey-В ролях:
Майкл Джей Уайт (Isaiah Bone), Джулиан Сэндс (Franklin McVeigh), Имонн Уолкер (James), Данте Баско (Pinball), Нона Гэй (Tamara), Мишель Белергин (Angela), Боб Сапп (Hammerman), Дик Энтони Уильямс (Roberto), Фрэнсис Капра (Tattoo), Рон Йуан (Teddy D), Кевин «Кимбо Слайс» Фергюсон (JC), Джина Карано (Veretta)-Описание:
История таинственного бродяги по имени Исай Бон, который начинает участвовать в уличных драках, в глухих переулках Лос-Анджелеса, чтобы выполнить обещание данное умершему другу…-Релиз групп | | IMDB | КиноПоиск | Сэмпл |-Качество: BDRip [BDRemux]
Формат: AVI
Видео: 704x400 (1.76:1), 23.976 fps, XviD build 73 ~1778 kbps avg, 0.26 bit/pixel
Аудио: 48 kHz, AC3 Dolby Digital, 3/2 (L,C,R,l,r) + LFE ch, ~448.00 kbps avg
-

Скриншоты

MediaInfo

General
Complete name                            : D:\Krov`_i_kost`_2009_BDRip_AVO_by_Dalemake.avi
Format                                   : AVI
Format/Info                              : Audio Video Interleave
File size                                : 1.46 GiB
Duration                                 : 1h 33mn
Overall bit rate                         : 2 236 Kbps
Writing application                      : VirtualDubMod 1.5.10.3 | www.virtualdub-fr.org || (build 2550/release)
Writing library                          : VirtualDubMod build 2550/release
Video
ID                                       : 0
Format                                   : MPEG-4 Visual
Format profile                           : Advanced Simple@L5
Format settings, BVOP                    : 1
Format settings, QPel                    : No
Format settings, GMC                     : No warppoints
Format settings, Matrix                  : Custom
Codec ID                                 : XVID
Codec ID/Hint                            : XviD
Duration                                 : 1h 33mn
Bit rate                                 : 1 779 Kbps
Width                                    : 704 pixels
Height                                   : 400 pixels
Display aspect ratio                     : 16:9
Frame rate                               : 23.976 fps
Color space                              : YUV
Chroma subsampling                       : 4:2:0
Bit depth                                : 8 bits
Scan type                                : Progressive
Compression mode                         : Lossy
Bits/(Pixel*Frame)                       : 0.263
Stream size                              : 1.16 GiB (80%)
Writing library                          : XviD 73
Audio
ID                                       : 1
Format                                   : AC-3
Format/Info                              : Audio Coding 3
Mode extension                           : CM (complete main)
Format settings, Endianness              : Big
Codec ID                                 : 2000
Duration                                 : 1h 33mn
Bit rate mode                            : Constant
Bit rate                                 : 448 Kbps
Channel(s)                               : 6 channels
Channel positions                        : Front: L C R, Side: L R, LFE
Sampling rate                            : 48.0 KHz
Bit depth                                : 16 bits
Compression mode                         : Lossy
Stream size                              : 299 MiB (20%)
Alignment                                : Split accross interleaves
Interleave, duration                     : 42 ms (1.00 video frame)
Interleave, preload duration             : 500 ms
-
[Профиль] [ЛС]

Создавать темы 06-Авг-2015 22:50 (спустя 6 месяцев 30 дней)

Топик был перенесен из форума Фильмы до 2014 года в форум Фильмы до 2012 года
sergej644
 

Создавать темы 12-Июн-2016 08:48 (спустя 1 год 5 месяцев)

Топик был перенесен из форума Фильмы 2011 года в форум Фильмы 2009 года
Russian Mafia
 
Кто просматривает тему:

Форум Тема Автор Размер
Metal (Хэви Метал) Ария - Кровь За Кровь 25 лет - 2016, MP3, 320 kbps достали все 226 MB
BBC BBC: Кельты: Кровью и железом с Элис Робертс и Нилом Оливером / The Celts: Blood, Iron and Sacrifice with Alice Roberts and Neil Oliver [серии 1-3 из 3] (Jeremy Hall) [2015 г., Документ... skorpionN 4.16 GB
BBC BBC: Кровь и золото. Становление Испании с Саймоном Себагом-Монтефиоре / Blood and Gold: The Making of Spain with Simon Sebag Montefiore [серии 1-3 из 3] (Marion Milne) [2015 г., Документал... skorpionN 5.43 GB
Action FPS (1st Person) Painkiller Black Edition / Painkiller: Крещенный кровью + Painkiller: Битва за Пределами Ада [L|GOG] [ENG] (2004) (v.1.64) TorrentFilm 3.67 GB
BBC Viasat History: Кельты: Кровью и железом с Элис Робертс и Нилом Оливером / The Celts: Blood, Iron and Sacrifice with Alice Roberts and Neil Oliver [серии 1-3 из 3] (Jeremy Hal... skorpionN 2.69 GB
Зарубежные мультфильмы Бэтмен: Дурная кровь / Batman: Bad Blood (2016) BDRip 720p | LE-Production достали все 2.17 GB
Зарубежные мультфильмы Бэтмен: Дурная кровь / Batman: Bad Blood (2016) BDRip | LE-Production достали все 1.37 GB
Зарубежные мультфильмы Бэтмен: Дурная кровь / Batman: Bad Blood (2016) BDRip от Twi7ter | P Russian Mafia 1.37 GB
Показать сообщения:    

Текущее время: Сегодня 04:28

Часовой пояс: GMT



Вы не можете начинать темы
Вы не можете отвечать на сообщения
Вы не можете редактировать свои сообщения
Вы не можете удалять свои сообщения
Вы не можете голосовать в опросах
Вы не можете прикреплять файлы к сообщениям
Вы не можете скачивать файлы