Кровососущие подонки / Bloodsucking Bastards (2015) WEB-DL 720p | L2

 
Автор Сообщение

достали все ®

Пол:

Стаж: 1 год 8 месяцев

Сообщений: 6571



Награды: 12 (Подробнее)

Mega Seeder 4 (Количество: 1) Top Releaser 2 (Количество: 1) Mega Releaser 1 (Количество: 1)
Торрент-статистика

Создавать темы 14-Сен-2015 21:55

[Цитировать]

Информация о фильме
Название: Кровососущие подонки
Оригинальное название: Bloodsucking Bastards
Год выхода: 2015
Жанр: ужасы, комедия
Режиссер: Брайан Джеймс О’Коннелл
В ролях: Фрэн Кранц, Педро Паскаль, Джои Керн, Джоэль Мюррей, Эмма Фитцпатрик, Ивет Йэтс, Джастин Уэр, Маршалл Такер, Дэвид Ф. Парк
О фильме: Трудяга Эван давно работает в корпорации и ждет повышения. Однако его босс отдает эту должность заклятому врагу Эвана — Максу. Вскоре в офисе начинают происходить изменения, и оказывается, что Макс — настоящий вампир…

Выпущено: США / Fortress Features, MTY Productions
Продолжительность: 01:24:03
Озвучивание: Любительское (двухголосое) [den904 & DeadSno]

Файл
Формат: MKV
Качество: WEB-DL 720p
Видео: 3944 kb/s, 1280x570
Аудио: Russian / English: AC3, 384 kb/s (6 ch)
Субтитры: English

MI

Format : Matroska
Format version : Version 4 / Version 2
File size : 2.82 GiB
Duration : 1h 24mn
Overall bit rate : 4 807 Kbps
Encoded date : UTC 2015-09-14 20:33:24
Writing application : mkvmerge v6.1.0 ('Old Devil') built on Mar 4 2013 09:10:42
Writing library : libebml v1.3.0 + libmatroska v1.4.0
Video
ID : 1
Format : AVC
Format/Info : Advanced Video Codec
Format profile : High@L3.1
Format settings, CABAC : No
Format settings, ReFrames : 2 frames
Codec ID : V_MPEG4/ISO/AVC
Duration : 1h 24mn
Bit rate : 3 944 Kbps
Width : 1 280 pixels
Height : 570 pixels
Display aspect ratio : 2.25:1
Frame rate mode : Constant
Frame rate : 23.976 fps
Color space : YUV
Chroma subsampling : 4:2:0
Bit depth : 8 bits
Scan type : Progressive
Bits/(Pixel*Frame) : 0.225
Stream size : 2.32 GiB (82%)
Language : English
Default : Yes
Forced : No
Color range : Limited
Color primaries : BT.709
Transfer characteristics : BT.709
Matrix coefficients : BT.709
Audio #1
ID : 2
Format : AC-3
Format/Info : Audio Coding 3
Mode extension : CM (complete main)
Format settings, Endianness : Big
Codec ID : A_AC3
Duration : 1h 24mn
Bit rate mode : Constant
Bit rate : 384 Kbps
Channel(s) : 6 channels
Channel positions : Front: L C R, Side: L R, LFE
Sampling rate : 48.0 KHz
Bit depth : 16 bits
Compression mode : Lossy
Stream size : 231 MiB (8%)
Language : Russian
Default : Yes
Forced : No
Audio #2
ID : 3
Format : AC-3
Format/Info : Audio Coding 3
Mode extension : CM (complete main)
Format settings, Endianness : Big
Codec ID : A_AC3
Duration : 1h 24mn
Bit rate mode : Constant
Bit rate : 384 Kbps
Channel(s) : 6 channels
Channel positions : Front: L C R, Side: L R, LFE
Sampling rate : 48.0 KHz
Bit depth : 16 bits
Compression mode : Lossy
Stream size : 231 MiB (8%)
Language : English
Default : No
Forced : No
Text
ID : 4
Format : UTF-8
Codec ID : S_TEXT/UTF8
Codec ID/Info : UTF-8 Plain Text
Language : English
Default : No
Forced : No
Menu
00:00:00.000 : en:1
00:10:55.000 : en:2
00:20:06.000 : en:3
00:30:37.000 : en:4
00:40:14.000 : en:5
00:48:41.000 : en:6
00:56:47.000 : en:7
01:02:18.000 : en:8
01:12:11.000 : en:9
01:19:51.000 : en:10
01:21:45.000 : en:11

Скриншоты



[Профиль] [ЛС]
Показать сообщения:    

Текущее время: Сегодня 02:26

Часовой пояс: GMT



Вы не можете начинать темы
Вы не можете отвечать на сообщения
Вы не можете редактировать свои сообщения
Вы не можете удалять свои сообщения
Вы не можете голосовать в опросах
Вы не можете прикреплять файлы к сообщениям
Вы не можете скачивать файлы