Кровный отец / Blood Father (2016) HDRip-AVC | L

 
Автор Сообщение

Razboynik ®

Пол:

Стаж: 1 месяц 16 дней

Сообщений: 33



Награды: Нет

Торрент-статистика

Создавать темы 18-Окт-2016 11:28

[Цитировать]

Информация о фильме
Название: Кровный отец
Оригинальное название: Blood Father
Год выхода: 2016
Жанр: Боевик, триллер
Режиссер: Жан-Франсуа Рише
В ролях: Мэл Гибсон, Эрин Мориарти, Диего Луна, Майкл Паркс, Уильям Х. Мэйси, Мигель Сандовал, Дейл Дикки, Ричард Кебрал, Дэниэл Монкада, Райан Дорси
О фильме: Главный герой признается в том, что мало уделял внимания своей дочери. Большую часть времени он проводил во всевозможных разгулах, что в результате привело к разводу с супругой. Уже через короткое время он был пойман полицией и угодил за решетку. Пока он мотал свой срок, его дочь подрастала без отца, а бывшая супруга, очевидно, не справлялась с воспитанием дочери. Она все более и более походила на отца, и ее все время тянуло на приключения связанные с нарушением закона. Как следствие девушка стала членом одной из самых крупных преступных группировок города. Эта банда носит жуткую славу и как только кто-либо из членов преступного синдиката совершает маленькую провинность, то его ждет неминуемая смерть. У дочери главного героя начались серьезные проблемы с наркоторговцами, и она от них скрывается. Отец, узнав, что у дочери большие проблемы решается прийти ей на помощь. Как воспримет дочь, не видевшая отца годами, его рвение сблизится с ней и помочь?

Выпущено: Франция / Why Not Productions
Продолжительность: 01:28:12
Озвучивание: Любительское (многоголосное) [студия "Paradox" & "Omskbird records"]
Роли озвучивали: Денис Строев, Маргарита Корш, Константин Погодаев, Павел Ярощик, Ольга Фёдорова
Перевод: Оксана Графутко
Примечание: Релиз без рекламы.
Присутствует ненормативная лексика
.

Файл
Качество: HDRip (AVC)
Видео: MPEG-4 AVC, 1915 Кбит/с, 1024x428
Аудио: Русский, английский (AC3, 6 ch, 448 Кбит/с)
Субтитры: Английские

MI

General
Unique ID : 254016922016438061353228735460959002958 (0xBF19E130B187E5BCBA2FFA1AED03214E)
Complete name : E:Blood.Father.2016.MVO.HDRip.AVC.ExKinoRay.mkv
Format : Matroska
Format version : Version 2
File size : 1.73 GiB
Duration : 1 h 28 min
Overall bit rate : 2 809 kb/s
Movie name : Blood Father 2016 from ExKinoRay
Encoded date : UTC 2016-10-01 04:22:20
Writing application : mkvmerge v7.6.0 ('Garden of Dreams') 32bit built on Feb 11 2015 00:18:47
Writing library : libebml v1.3.1 + libmatroska v1.4.2
Video
ID : 1
Format : AVC
Format/Info : Advanced Video Codec
Format profile : High@L4.1
Format settings, CABAC : Yes
Format settings, ReFrames : 12 frames
Codec ID : V_MPEG4/ISO/AVC
Duration : 1 h 28 min
Bit rate : 1 915 kb/s
Width : 1 024 pixels
Height : 428 pixels
Display aspect ratio : 2.40:1
Frame rate mode : Constant
Frame rate : 23.976 (23976/1000) FPS
Color space : YUV
Chroma subsampling : 4:2:0
Bit depth : 8 bits
Scan type : Progressive
Bits/(Pixel*Frame) : 0.182
Stream size : 1.14 GiB (66%)
Title : Enigma
Writing library : x264 core 144 r2525 40bb568
Encoding settings : cabac=1 / ref=12 / deblock=1:-2:-2 / analyse=0x3:0x113 / me=umh / subme=10 / psy=1 / psy_rd=1.05:0.15 / mixed_ref=1 / me_range=32 / chroma_me=1 / trellis=2 / 8x8dct=1 / cqm=0 / deadzone=21,11 / fast_pskip=0 / chroma_qp_offset=-3 / threads=12 / lookahead_threads=3 / sliced_threads=0 / nr=0 / decimate=0 / interlaced=0 / bluray_compat=0 / constrained_intra=0 / bframes=11 / b_pyramid=2 / b_adapt=2 / b_bias=0 / direct=3 / weightb=1 / open_gop=0 / weightp=2 / keyint=240 / keyint_min=23 / scenecut=40 / intra_refresh=0 / rc_lookahead=40 / rc=2pass / mbtree=0 / bitrate=1915 / ratetol=1.0 / qcomp=0.60 / qpmin=0 / qpmax=51 / qpstep=4 / cplxblur=20.0 / qblur=0.5 / vbv_maxrate=50000 / vbv_bufsize=62500 / nal_hrd=none / filler=0 / ip_ratio=1.40 / pb_ratio=1.30 / aq=1:1.00
Language : English
Default : Yes
Forced : No
Color range : Limited
Color primaries : BT.709
Transfer characteristics : BT.709
Matrix coefficients : BT.709
Audio #1
ID : 2
Format : AC-3
Format/Info : Audio Coding 3
Mode extension : CM (complete main)
Format settings, Endianness : Big
Codec ID : A_AC3
Duration : 1 h 28 min
Bit rate mode : Constant
Bit rate : 448 kb/s
Channel(s) : 6 channels
Channel positions : Front: L C R, Side: L R, LFE
Sampling rate : 48.0 kHz
Frame rate : 31.250 FPS (1536 spf)
Compression mode : Lossy
Stream size : 283 MiB (16%)
Title : MVO (Студия "Paradox" & Omskbird records)
Language : Russian
Default : Yes
Forced : No
Audio #2
ID : 3
Format : AC-3
Format/Info : Audio Coding 3
Mode extension : CM (complete main)
Format settings, Endianness : Big
Codec ID : A_AC3
Duration : 1 h 28 min
Bit rate mode : Constant
Bit rate : 448 kb/s
Channel(s) : 6 channels
Channel positions : Front: L C R, Side: L R, LFE
Sampling rate : 48.0 kHz
Frame rate : 31.250 FPS (1536 spf)
Compression mode : Lossy
Stream size : 283 MiB (16%)
Language : English
Default : No
Forced : No
Text
ID : 4
Format : UTF-8
Codec ID : S_TEXT/UTF8
Codec ID/Info : UTF-8 Plain Text
Language : English
Default : No
Forced : No
Menu
00:00:00.000 : en:Chapter 01
00:08:23.211 : en:Chapter 02
00:15:56.163 : en:Chapter 03
00:24:36.516 : en:Chapter 04
00:30:10.767 : en:Chapter 05
00:37:15.191 : en:Chapter 06
00:49:58.787 : en:Chapter 07
00:56:37.435 : en:Chapter 08
01:03:54.956 : en:Chapter 09
01:11:52.683 : en:Chapter 10
01:20:01.546 : en:Chapter 11
01:26:27.265 : en:Chapter 12
[Профиль] [ЛС]
Кто просматривает тему:

Форум Тема Автор Размер
Документальные HD Nat Geo Wild: Кровная вражда. Лев против буйвола / Blood Rivals. Lion vs Buffalo (Билли-Жан Паркер \\ Billi-Jean Parker) [2014, Документальный, HDTVRip 720p] TorrentFilm 1.35 GB
Фильмы (HD Rips | 720p, 1080p) Дрожь земли 5: Кровное родство / Tremors 5: Bloodlines (2015) BDRip 1080p | Лицензия достали все 9.28 GB
Фильмы (HD Rips | 720p, 1080p) Дрожь земли 5: Кровное родство / Tremors 5: Bloodlines (2015) BDRip 720p | L достали все 3.95 GB
Фильмы (HD Rips | 720p, 1080p) Дрожь земли 5: Кровное родство / Tremors 5: Bloodlines (2015) BDRip 720p | Лицензия достали все 5.65 GB
Фильмы 2015 года Дрожь земли 5: Кровное родство / Tremors 5: Bloodlines (2015) BDRip от Twi7ter | Лицензия Russian Mafia 1.46 GB
Фильмы (HD DVD, Blu-ray и BDRemux) Дрожь земли 5: Кровное родство / Tremors 5: Bloodlines (2015) Blu-Ray Remux 1080p | L Russian Mafia 26.2 GB
Фильмы (HD DVD, Blu-ray и BDRemux) Дрожь земли 5: Кровное родство / Tremors 5: Bloodlines (2015) Blu-ray | Лицензия достали все 37.89 GB
Фильмы 2015 года Дрожь земли 5: Кровное родство / Tremors 5: Bloodlines (2015) HDRip | L Russian Mafia 1.37 GB
Показать сообщения:    

Текущее время: Сегодня 06:28

Часовой пояс: GMT



Вы не можете начинать темы
Вы не можете отвечать на сообщения
Вы не можете редактировать свои сообщения
Вы не можете удалять свои сообщения
Вы не можете голосовать в опросах
Вы не можете прикреплять файлы к сообщениям
Вы не можете скачивать файлы