Кровный отец / Blood Father (2016) BDRemux 1080p от ExKinoRay | L

 
Автор Сообщение

Russian Mafia ®

Пол:

Стаж: 1 год 8 месяцев

Сообщений: 4257



Награды: 10 (Подробнее)

Mega Seeder 4 (Количество: 1) Top Releaser 4 (Количество: 1) Mega Seeder 3 (Количество: 1)
Торрент-статистика

Создавать темы 06-Окт-2016 08:07

[Цитировать]

Информация о фильме
Название: Кровный отец
Оригинальное название: Blood Father
Год выхода: 2016
Жанр: Боевик, триллер
Режиссер: Жан-Франсуа Рише
В ролях: Мэл Гибсон, Эрин Мориарти, Диего Луна, Майкл Паркс, Уильям Х. Мэйси, Мигель Сандовал, Дейл Дикки, Ричард Кебрал, Дэниэл Монкада, Райан Дорси
О фильме:
Главный герой признается в том, что мало уделял внимания своей дочери. Большую часть времени он проводил во всевозможных разгулах, что в результате привело к разводу с супругой. Уже через короткое время он был пойман полицией и угодил за решетку. Пока он мотал свой срок, его дочь подрастала без отца, а бывшая супруга, очевидно, не справлялась с воспитанием дочери. Она все более и более походила на отца, и ее все время тянуло на приключения связанные с нарушением закона. Как следствие девушка стала членом одной из самых крупных преступных группировок города. Эта банда носит жуткую славу и как только кто-либо из членов преступного синдиката совершает маленькую провинность, то его ждет неминуемая смерть. У дочери главного героя начались серьезные проблемы с наркоторговцами, и она от них скрывается. Отец, узнав, что у дочери большие проблемы решается прийти ей на помощь. Как воспримет дочь, не видевшая отца годами, его рвение сблизится с ней и помочь?

Страна: Франция
Студия: Why Not Productions
Продолжительность: 01:28:12
Перевод: Любительский многоголосый (закадровый) | Студия "Paradox" & Omskbird records.
Файл
Кодек: MPEG-4
Качество: BDRemux 1080p
Видео: 1920x1080, 20.4 Mbit/s, 23.976 fps
Звук:
Аудио #01: 48 kHz, DTS, 5.1, 1510 Kbps | Любительский многоголосый (закадровый) | Студия "Paradox" & Omskbird records.|
Аудио #02: 48 kHz, AC3, 5.1, 640 Kbps | Любительский многоголосый (закадровый) | Студия "Paradox" & Omskbird records.|
Аудио #03: 48 kHz, DTS-HD MA, 5.1, 3450 kbps | Оригинал |

MI

General
Unique ID : 184369301484169657453825009470655527141 (0x8AB43C6105314AABAAEF4FD2C85578E5)
Complete name : H:VideoBlood.Father.2016.BDREMUX.1080p.ExKinoRay.mkv
Format : Matroska
Format version : Version 4 / Version 2
File size : 16.0 GiB
Duration : 1 h 28 min
Overall bit rate mode : Variable
Overall bit rate : 26.0 Mb/s
Movie name : ***селезень***
Encoded date : UTC 2016-10-06 05:13:57
Writing application : mkvmerge v8.3.0 ('Over the Horizon') 64bit
Writing library : libebml v1.3.1 + libmatroska v1.4.2
Video
ID : 1
Format : AVC
Format/Info : Advanced Video Codec
Format profile : High@L4.1
Format settings, CABAC : Yes
Format settings, ReFrames : 4 frames
Codec ID : V_MPEG4/ISO/AVC
Duration : 1 h 28 min
Bit rate mode : Variable
Bit rate : 20.4 Mb/s
Maximum bit rate : 37.0 Mb/s
Width : 1 920 pixels
Height : 1 080 pixels
Display aspect ratio : 16:9
Frame rate mode : Constant
Frame rate : 23.976 (24000/1001) FPS
Color space : YUV
Chroma subsampling : 4:2:0
Bit depth : 8 bits
Scan type : Progressive
Bits/(Pixel*Frame) : 0.411
Stream size : 12.6 GiB (78%)
Title : build by ***селезень***
Language : English
Default : Yes
Forced : No
Audio #1
ID : 2
Format : DTS
Format/Info : Digital Theater Systems
Mode : 16
Format settings, Endianness : Big
Codec ID : A_DTS
Duration : 1 h 28 min
Bit rate mode : Constant
Bit rate : 1 509 kb/s
Channel(s) : 6 channels
Channel positions : Front: L C R, Side: L R, LFE
Sampling rate : 48.0 kHz
Frame rate : 93.750 FPS (512 spf)
Bit depth : 24 bits
Compression mode : Lossy
Stream size : 952 MiB (6%)
Title : MVO-DTS ["Paradox" & Omskbird records]
Language : Russian
Default : Yes
Forced : No
Audio #2
ID : 3
Format : AC-3
Format/Info : Audio Coding 3
Mode extension : CM (complete main)
Format settings, Endianness : Big
Codec ID : A_AC3
Duration : 1 h 28 min
Bit rate mode : Constant
Bit rate : 640 kb/s
Channel(s) : 6 channels
Channel positions : Front: L C R, Side: L R, LFE
Sampling rate : 48.0 kHz
Frame rate : 31.250 FPS (1536 spf)
Compression mode : Lossy
Stream size : 404 MiB (2%)
Title : MVO-AC3 ["Paradox" & Omskbird records]
Language : Russian
Default : No
Forced : No
Audio #3
ID : 4
Format : DTS
Format/Info : Digital Theater Systems
Format profile : MA / Core
Mode : 16
Format settings, Endianness : Big
Codec ID : A_DTS
Duration : 1 h 28 min
Bit rate mode : Variable / Constant
Bit rate : 3 450 kb/s / 1 509 kb/s
Channel(s) : 6 channels
Channel positions : Front: L C R, Side: L R, LFE
Sampling rate : 48.0 kHz
Frame rate : 93.750 FPS (512 spf)
Bit depth : 24 bits
Compression mode : Lossless / Lossy
Stream size : 2.13 GiB (13%)
Title : Original
Language : English
Default : No
Forced : No
Menu
00:00:00.000 : en:Chapter 1
00:07:02.797 : en:Chapter 2
00:10:16.741 : en:Chapter 3
00:15:59.583 : en:Chapter 4
00:22:02.195 : en:Chapter 5
00:28:58.695 : en:Chapter 6
00:32:28.946 : en:Chapter 7
00:38:43.112 : en:Chapter 8
00:45:11.583 : en:Chapter 9
00:48:45.839 : en:Chapter 10
00:52:44.369 : en:Chapter 11
00:57:36.327 : en:Chapter 12
01:02:32.707 : en:Chapter 13
01:07:51.734 : en:Chapter 14
01:12:41.607 : en:Chapter 15
01:20:57.560 : en:Chapter 16

Релиз от: Автор релиза:
[Профиль] [ЛС]
Кто просматривает тему:

Форум Тема Автор Размер
Документальные HD Nat Geo Wild: Кровная вражда. Лев против буйвола / Blood Rivals. Lion vs Buffalo (Билли-Жан Паркер \\ Billi-Jean Parker) [2014, Документальный, HDTVRip 720p] TorrentFilm 1.35 GB
Фильмы (HD Rips | 720p, 1080p) Дрожь земли 5: Кровное родство / Tremors 5: Bloodlines (2015) BDRip 1080p | Лицензия достали все 9.28 GB
Фильмы (HD Rips | 720p, 1080p) Дрожь земли 5: Кровное родство / Tremors 5: Bloodlines (2015) BDRip 720p | L достали все 3.95 GB
Фильмы (HD Rips | 720p, 1080p) Дрожь земли 5: Кровное родство / Tremors 5: Bloodlines (2015) BDRip 720p | Лицензия достали все 5.65 GB
Фильмы 2015 года Дрожь земли 5: Кровное родство / Tremors 5: Bloodlines (2015) BDRip от Twi7ter | Лицензия Russian Mafia 1.46 GB
Фильмы (HD DVD, Blu-ray и BDRemux) Дрожь земли 5: Кровное родство / Tremors 5: Bloodlines (2015) Blu-Ray Remux 1080p | L Russian Mafia 26.2 GB
Фильмы (HD DVD, Blu-ray и BDRemux) Дрожь земли 5: Кровное родство / Tremors 5: Bloodlines (2015) Blu-ray | Лицензия достали все 37.89 GB
Фильмы 2015 года Дрожь земли 5: Кровное родство / Tremors 5: Bloodlines (2015) HDRip | L Russian Mafia 1.37 GB
Показать сообщения:    

Текущее время: Сегодня 02:17

Часовой пояс: GMT



Вы не можете начинать темы
Вы не можете отвечать на сообщения
Вы не можете редактировать свои сообщения
Вы не можете удалять свои сообщения
Вы не можете голосовать в опросах
Вы не можете прикреплять файлы к сообщениям
Вы не можете скачивать файлы