Кровный отец / Blood Father (2016) WEB-DLRip от Portablius | L

 
Автор Сообщение

достали все ®

Пол:

Стаж: 1 год 8 месяцев

Сообщений: 6571



Награды: 12 (Подробнее)

Top Releaser 3 (Количество: 1) Top Releaser 2 (Количество: 1) Mega Seeder 4 (Количество: 1)
Торрент-статистика

Создавать темы 29-Авг-2016 03:23

[Цитировать]

Информация о фильме
Название: Кровный отец
Оригинальное название: Blood Father
Год выхода: 2016
Жанр: боевик, триллер
Режиссер: Жан-Франсуа Рише
В ролях: Мэл Гибсон, Эрин Мориарти, Диего Луна, Майкл Паркс, Уильям Х. Мэйси, Мигель Сандовал, Дейл Дикки, Ричард Кебрал, Дэниэл Монкада, Райан Дорси
О фильме: Бывший заключенный, раньше не участвовавший в воспитании дочери, узнав о том, что его дочь преследуют наркоторговцы и жаждут ее смерти, решил помочь ей с проблемами.

Страна: Франция
Студия: Why Not Productions
Продолжительность: 01:28:11
Перевод: Любительский (многоголосый, закадровый) [Parovoz Production]
Субтитры: Нет
ПРИМЕЧАНИЕ: ПРИСУТСТВУЕТ РЕКЛАМА!
Семпл
Файл
Кодек: XviD
Качество: WEB-DLRip
Видео: 704x288 (2.44:1), 23.976 fps, XviD build 73 ~1039 kbps avg, 0.21 bit/pixel
Звук: 48 kHz, MPEG Layer 3, 2 ch, ~128.00 kbps avg

MediaInfo

General
Complete name : Blood.Father.2O16.L.WEB-DLRip.ot.Portablius.avi
Format : AVI
Format/Info : Audio Video Interleave
File size : 742 MiB
Duration : 1h 28mn
Overall bit rate : 1 177 Kbps
Writing application : VirtualDubMod 1.5.10.3 | www.virtualdub-fr.org || (build 2550/release)
Writing library : VirtualDubMod build 2550/release
Video
ID : 0
Format : MPEG-4 Visual
Format profile : Advanced Simple@L5
Format settings, BVOP : Yes
Format settings, QPel : No
Format settings, GMC : No warppoints
Format settings, Matrix : Custom
Codec ID : XVID
Codec ID/Hint : XviD
Duration : 1h 28mn
Bit rate : 1 039 Kbps
Width : 704 pixels
Height : 288 pixels
Display aspect ratio : 2.40:1
Frame rate : 23.976 fps
Resolution : 8 bits
Colorimetry : 4:2:0
Scan type : Progressive
Bits/(Pixel*Frame) : 0.214
Stream size : 656 MiB (88%)
Writing library : XviD 73
Audio
ID : 1
Format : MPEG Audio
Format version : Version 1
Format profile : Layer 3
Codec ID : 55
Codec ID/Hint : MP3
Duration : 1h 28mn
Bit rate mode : Constant
Bit rate : 128 Kbps
Channel(s) : 2 channels
Sampling rate : 48.0 KHz
Stream size : 80.7 MiB (11%)
Alignment : Aligned on interleaves
Interleave, duration : 42 ms (1.00 video frame)
Interleave, preload duration : 504 ms
Writing library : LAME3.99r
Encoding settings : -m s -V 4 -q 2 -lowpass 17 -b 128

Скриншоты

[Профиль] [ЛС]
Кто просматривает тему:

Форум Тема Автор Размер
Документальные HD Nat Geo Wild: Кровная вражда. Лев против буйвола / Blood Rivals. Lion vs Buffalo (Билли-Жан Паркер \\ Billi-Jean Parker) [2014, Документальный, HDTVRip 720p] TorrentFilm 1.35 GB
Фильмы (HD Rips | 720p, 1080p) Дрожь земли 5: Кровное родство / Tremors 5: Bloodlines (2015) BDRip 1080p | Лицензия достали все 9.28 GB
Фильмы (HD Rips | 720p, 1080p) Дрожь земли 5: Кровное родство / Tremors 5: Bloodlines (2015) BDRip 720p | L достали все 3.95 GB
Фильмы (HD Rips | 720p, 1080p) Дрожь земли 5: Кровное родство / Tremors 5: Bloodlines (2015) BDRip 720p | Лицензия достали все 5.65 GB
Фильмы 2015 года Дрожь земли 5: Кровное родство / Tremors 5: Bloodlines (2015) BDRip от Twi7ter | Лицензия Russian Mafia 1.46 GB
Фильмы (HD DVD, Blu-ray и BDRemux) Дрожь земли 5: Кровное родство / Tremors 5: Bloodlines (2015) Blu-Ray Remux 1080p | L Russian Mafia 26.2 GB
Фильмы (HD DVD, Blu-ray и BDRemux) Дрожь земли 5: Кровное родство / Tremors 5: Bloodlines (2015) Blu-ray | Лицензия достали все 37.89 GB
Фильмы 2015 года Дрожь земли 5: Кровное родство / Tremors 5: Bloodlines (2015) HDRip | L Russian Mafia 1.37 GB
Показать сообщения:    

Текущее время: Сегодня 18:30

Часовой пояс: GMT



Вы не можете начинать темы
Вы не можете отвечать на сообщения
Вы не можете редактировать свои сообщения
Вы не можете удалять свои сообщения
Вы не можете голосовать в опросах
Вы не можете прикреплять файлы к сообщениям
Вы не можете скачивать файлы