Кровная месть / Vendetta (Джен Соска / Jen Soska, Сильвия Соска / Sylvia Soska) [2015, США, Боевик, WEB-DLRip] VO (datynet)

 
Автор Сообщение

TorrentFilm ®

Пол:

Стаж: 2 года

Сообщений: 7741



Награды: Нет

Торрент-статистика

Создавать темы 09-Июл-2015 00:08

[Цитировать]

Кровная месть / Vendetta
Страна: США
Жанр: Боевик
Год выпуска: 2015
Продолжительность: 01:30:33
Перевод: Одноголосый закадровый [datynet]
Cубтитры: нет
Оригинальная аудиодорожка: нет
Режиссер: Джен Соска / Jen Soska , Сильвия Соска / Sylvia Soska
В ролях: Дин Кэйн, Кира Загорски, Бен Холлингсворт, Майкл Эклунд, Пол Энтони, Пол Уайт, Алекс Паунович, Адриан Холмс, Хуан Ридингер, Джонатан Уолкер
Описание: Мейсон - частный детектив, который в поисках возмездия переступает черту закона. Ярость, безысходность и жажда отомстить за близкого человека превращают его из полицейского в преступника. Он намеренно садится в тюрьму, чтобы добраться к убийце своей жени, который отбывает там наказание. Но попав за решетку, он становится настоящей мишенью для заключенных, ведь многие хотят отомстить бывшему стражу порядка, который когда-то упрятал их за решетку. Мейсон оказывается в очень непростой и опасной ситуации, ведь он хочет отомстить лишь одному, в то время, как очень многие желают поквитаться с ним.
Доп. информация:
http://www.kinopoisk.ru/film/854814/
Сэмпл: http://sendfile.su/1135533
Качество видео: WEB-DLRip
Формат видео: AVI
Видео: XVID, 1918 kb/s, 720x400, 23.976 fps
Аудио: Russian : AC3, 384 kb/s (6 ch), 48.0 KHz

MediaInfo

General
Complete name : Vendetta.2015.L1.WEBDLRip.1.46GB.avi
Format : AVI
Format/Info : Audio Video Interleave
File size : 1.46 GiB
Duration : 1h 30mn
Overall bit rate : 2 311 Kbps
Writing application : VirtualDubMod 1.5.10.2 (build 2540/release)
Writing library : VirtualDubMod build 2540/release
Video
ID : 0
Format : MPEG-4 Visual
Format profile : Advanced Simple@L5
Format settings, BVOP : 2
Format settings, QPel : No
Format settings, GMC : No warppoints
Format settings, Matrix : Default (MPEG)
Codec ID : XVID
Codec ID/Hint : XviD
Duration : 1h 30mn
Bit rate : 1 918 Kbps
Width : 720 pixels
Height : 400 pixels
Display aspect ratio : 16:9
Frame rate : 23.976 fps
Color space : YUV
Chroma subsampling : 4:2:0
Bit depth : 8 bits
Scan type : Progressive
Compression mode : Lossy
Bits/(Pixel*Frame) : 0.278
Stream size : 1.21 GiB (83%)
Writing library : XviD 1.2.1 (UTC 2008-12-04)
Audio
ID : 1
Format : AC-3
Format/Info : Audio Coding 3
Mode extension : CM (complete main)
Codec ID : 2000
Duration : 1h 30mn
Bit rate mode : Constant
Bit rate : 384 Kbps
Channel(s) : 6 channels
Channel positions : Front: L C R, Side: L R, LFE
Sampling rate : 48.0 KHz
Bit depth : 16 bits
Compression mode : Lossy
Stream size : 248 MiB (17%)
Alignment : Split accross interleaves
Interleave, duration : 42 ms (1.00 video frame)
Interleave, preload duration : 500 ms

Скриншот c названием фильма

Скриншоты

[Профиль] [ЛС]
Кто просматривает тему:

Форум Тема Автор Размер
Документальные HD Nat Geo Wild: Кровная вражда. Лев против буйвола / Blood Rivals. Lion vs Buffalo (Билли-Жан Паркер \\ Billi-Jean Parker) [2014, Документальный, HDTVRip 720p] TorrentFilm 1.35 GB
Фильмы (HD Rips | 720p, 1080p) Дрожь земли 5: Кровное родство / Tremors 5: Bloodlines (2015) BDRip 1080p | Лицензия достали все 9.28 GB
Фильмы (HD Rips | 720p, 1080p) Дрожь земли 5: Кровное родство / Tremors 5: Bloodlines (2015) BDRip 720p | L достали все 3.95 GB
Фильмы (HD Rips | 720p, 1080p) Дрожь земли 5: Кровное родство / Tremors 5: Bloodlines (2015) BDRip 720p | Лицензия достали все 5.65 GB
Фильмы 2015 года Дрожь земли 5: Кровное родство / Tremors 5: Bloodlines (2015) BDRip от Twi7ter | Лицензия Russian Mafia 1.46 GB
Фильмы (HD DVD, Blu-ray и BDRemux) Дрожь земли 5: Кровное родство / Tremors 5: Bloodlines (2015) Blu-Ray Remux 1080p | L Russian Mafia 26.2 GB
Фильмы (HD DVD, Blu-ray и BDRemux) Дрожь земли 5: Кровное родство / Tremors 5: Bloodlines (2015) Blu-ray | Лицензия достали все 37.89 GB
Фильмы 2015 года Дрожь земли 5: Кровное родство / Tremors 5: Bloodlines (2015) HDRip | L Russian Mafia 1.37 GB
Показать сообщения:    

Текущее время: Сегодня 02:43

Часовой пояс: GMT



Вы не можете начинать темы
Вы не можете отвечать на сообщения
Вы не можете редактировать свои сообщения
Вы не можете удалять свои сообщения
Вы не можете голосовать в опросах
Вы не можете прикреплять файлы к сообщениям
Вы не можете скачивать файлы