Кровавый рассвет (Алексей Швачко) [1956, СССР, драма, история, DVD5] + Original Rus

 
Автор Сообщение

TorrentFilm ®

Пол:

Стаж: 2 года

Сообщений: 7741



Награды: Нет

Торрент-статистика

Создавать темы 04-Янв-2016 00:03

[Цитировать]

Кровавый рассвет
Страна: СССР
Студия: Киевская киностудия художественных фильмов
Жанр: драма, история
Год выпуска: 1956
Продолжительность: 1:19:45
Перевод: Не требуется
Cубтитры: нет
Оригинальная аудиодорожка: русский
Режиссер: Алексей Швачко
В ролях: Марьян Крушельницкий, Лилия Гриценко, Ада Роговцева, Юлиан Панич, Валентин Черняк, Николай Пишванов, Федор Радчук, Виктор Цымбалист, Петр Михневич, Александр Вертинский, Виктор Добровольский, Василий Яременко
Описание: Украина, 1904 год. Рабочий-революционер Марко Гуща возвращается в родное село. Радостно встречают Mapко старые друзья. Давно поджидала его и девушка Гафийка — дочь бедняков Андрея и Маланки. Трудна жизнь крестьян украинского села, но не покидает их мечта о лучшем будущем. Некоторые надеются, что помещики сами отдадут землю крестьянам. Иначе думает батрак Гудзь: нужно сначала расправиться с помещиками, и тогда крестьяне станут полноправными хозяевами земли. Марко возглавляет борьбу односельчан, но его арестовывают. Агитационную работу продолжает Гафийка. Вскоре Марко снова оказывается на свободе. Под его руководством борьба крестьян усиливается…
Доп. информация: По мотивам повести Михайло Коцюбинского "Fata Morgana" (1910)
Меню: статичное
Сэмпл: https://www.sendspace.com/file/cg55ce
Тип релиза: DVD5
Контейнер: DVD-Video
Видео: MPEG2, PAL, 720x576 [4:3], 4223 кбит/с, 25 кадров/с
Аудио: Русский, AC3 2.0, 48 кГц, 384 кбит/с

DVDInfo

Title: Кровавый рассвет
Size: 2.61 Gb ( 2 741 566,00 KBytes ) - DVD-5
Enabled regions: 1, 2, 3, 4, 5, 6, 7, 8
VTS_01 :
Play Length: 01:19:45
Video: PAL 4:3 (720x576) VBR
Audio:
Not specified, AC3, 2/0 (L,R) ch, 384 kbps, Delay 0 mSec

MediaInfo

Общее
Полное имя : D:\Кровавый рассвет\VIDEO_TS\VIDEO_TS.BUP
Формат : DVD Video
Профиль формата : Menu
Размер файла : 14,0 Кбайт
Режим общего битрейта : Переменный
Видео
Идентификатор : 224 (0xE0)
Формат : MPEG Video
Версия формата : Version 2
Вид битрейта : Переменный
Ширина : 720 пикселей
Высота : 576 пикселей
Соотношение сторон : 4:3
Частота кадров : 25,000 кадров/сек
Стандарт вещания : PAL
Метод сжатия : С потерями
Текст
Формат : RLE
Формат/Информация : Run-length encoding
Битовая глубина : 2 бит
Общее
Полное имя : D:\Кровавый рассвет\VIDEO_TS\VIDEO_TS.IFO
Формат : DVD Video
Профиль формата : Menu
Размер файла : 14,0 Кбайт
Режим общего битрейта : Переменный
Видео
Идентификатор : 224 (0xE0)
Формат : MPEG Video
Версия формата : Version 2
Вид битрейта : Переменный
Ширина : 720 пикселей
Высота : 576 пикселей
Соотношение сторон : 4:3
Частота кадров : 25,000 кадров/сек
Стандарт вещания : PAL
Метод сжатия : С потерями
Текст
Формат : RLE
Формат/Информация : Run-length encoding
Битовая глубина : 2 бит
Общее
Полное имя : D:\Кровавый рассвет\VIDEO_TS\VIDEO_TS.VOB
Формат : MPEG-PS
Размер файла : 58,0 Кбайт
Продолжительность : 40 мс.
Режим общего битрейта : Переменный
Общий поток : 11,9 Мбит/сек
Видео
Идентификатор : 224 (0xE0)
Формат : MPEG Video
Версия формата : Version 2
Профиль формата : Main@Main
Параметр BVOP формата : Нет
Параметр матрицы формата : По умолчанию
Продолжительность : 40 мс.
Вид битрейта : Переменный
Максимальный битрейт : 8648 Кбит/сек
Ширина : 720 пикселей
Высота : 576 пикселей
Соотношение сторон : 4:3
Частота кадров : 25,000 кадров/сек
Стандарт вещания : PAL
Цветовое пространство : YUV
Субдискретизация насыщенности : 4:2:0
Битовая глубина : 8 бит
Тип развёртки : Чересстрочная
Порядок развёртки : Верхнее поле первое
Метод сжатия : С потерями
Временной код первого кадра : 00:00:00:00
Оригинал временного кода : Group of pictures header
Основные цвета : BT.601 PAL
Характеристики трансфера : BT.470 System B, BT.470 System G
Коэффициенты матрицы : BT.601
Текст
Идентификатор : 189 (0xBD)-32 (0x20)
Формат : RLE
Формат/Информация : Run-length encoding
Режим смешивания : DVD-Video
Меню
Общее
Полное имя : D:\Кровавый рассвет\VIDEO_TS\VTS_01_0.BUP
Формат : DVD Video
Профиль формата : Program
Размер файла : 62,0 Кбайт
Продолжительность : 1 ч. 19 м.
Режим общего битрейта : Переменный
Общий поток : 106 бит/сек
Видео
Идентификатор : 224 (0xE0)
Формат : MPEG Video
Версия формата : Version 2
Продолжительность : 1 ч. 19 м.
Вид битрейта : Переменный
Ширина : 720 пикселей
Высота : 576 пикселей
Соотношение сторон : 4:3
Частота кадров : 25,000 кадров/сек
Стандарт вещания : PAL
Метод сжатия : С потерями
Аудио
Идентификатор : 128 (0x80)
Формат : AC-3
Формат/Информация : Audio Coding 3
Продолжительность : 1 ч. 19 м.
Каналы : 2 канала
Частота : 48,0 КГц
Метод сжатия : С потерями
Меню #1
Продолжительность : 1 ч. 19 м.
00:00:00.000 : Chapter 1
00:04:48.480 : Chapter 2
00:09:34.080 : Chapter 3
00:14:32.160 : Chapter 4
00:19:19.680 : Chapter 5
00:24:14.880 : Chapter 6
00:29:14.880 : Chapter 7
00:34:05.280 : Chapter 8
00:38:44.640 : Chapter 9
00:43:40.800 : Chapter 10
00:48:32.160 : Chapter 11
00:53:26.400 : Chapter 12
00:58:25.920 : Chapter 13
01:03:06.240 : Chapter 14
01:08:06.720 : Chapter 15
01:12:54.240 : Chapter 16
01:17:43.680 : Chapter 17
List (Audio) : 0
Меню #2
Общее
Полное имя : D:\Кровавый рассвет\VIDEO_TS\VTS_01_0.IFO
Формат : DVD Video
Профиль формата : Program
Размер файла : 62,0 Кбайт
Продолжительность : 1 ч. 19 м.
Режим общего битрейта : Переменный
Общий поток : 106 бит/сек
Видео
Идентификатор : 224 (0xE0)
Формат : MPEG Video
Версия формата : Version 2
Продолжительность : 1 ч. 19 м.
Вид битрейта : Переменный
Ширина : 720 пикселей
Высота : 576 пикселей
Соотношение сторон : 4:3
Частота кадров : 25,000 кадров/сек
Стандарт вещания : PAL
Метод сжатия : С потерями
Аудио
Идентификатор : 128 (0x80)
Формат : AC-3
Формат/Информация : Audio Coding 3
Продолжительность : 1 ч. 19 м.
Каналы : 2 канала
Частота : 48,0 КГц
Метод сжатия : С потерями
Меню #1
Продолжительность : 1 ч. 19 м.
00:00:00.000 : Chapter 1
00:04:48.480 : Chapter 2
00:09:34.080 : Chapter 3
00:14:32.160 : Chapter 4
00:19:19.680 : Chapter 5
00:24:14.880 : Chapter 6
00:29:14.880 : Chapter 7
00:34:05.280 : Chapter 8
00:38:44.640 : Chapter 9
00:43:40.800 : Chapter 10
00:48:32.160 : Chapter 11
00:53:26.400 : Chapter 12
00:58:25.920 : Chapter 13
01:03:06.240 : Chapter 14
01:08:06.720 : Chapter 15
01:12:54.240 : Chapter 16
01:17:43.680 : Chapter 17
List (Audio) : 0
Меню #2
Общее
Полное имя : D:\Кровавый рассвет\VIDEO_TS\VTS_01_1.VOB
Формат : MPEG-PS
Размер файла : 1023 Мбайт
Продолжительность : 14 с.
Режим общего битрейта : Переменный
Общий поток : 604 Мбит/сек
Видео
Идентификатор : 224 (0xE0)
Формат : MPEG Video
Версия формата : Version 2
Профиль формата : Main@Main
Параметр BVOP формата : Да
Параметр матрицы формата : Выборочная
Параметр GOP формата : M=3, N=12
Продолжительность : 14 с.
Вид битрейта : Переменный
Битрейт : 592 Мбит/сек
Максимальный битрейт : 9282 Кбит/сек
Ширина : 720 пикселей
Высота : 576 пикселей
Соотношение сторон : 4:3
Частота кадров : 25,000 кадров/сек
Стандарт вещания : PAL
Цветовое пространство : YUV
Субдискретизация насыщенности : 4:2:0
Битовая глубина : 8 бит
Тип развёртки : Чересстрочная
Порядок развёртки : Верхнее поле первое
Метод сжатия : С потерями
Бит/(Пиксели*Кадры) : 57.089
Временной код первого кадра : 00:00:00:00
Оригинал временного кода : Group of pictures header
Размер потока : 1002 Мбайт (98%)
Основные цвета : BT.601 PAL
Характеристики трансфера : BT.470 System B, BT.470 System G
Коэффициенты матрицы : BT.601
Аудио
Идентификатор : 189 (0xBD)-128 (0x80)
Формат : AC-3
Формат/Информация : Audio Coding 3
Расширение режима : CM (complete main)
Параметр Endianness формата : Big
Режим смешивания : DVD-Video
Продолжительность : 13 с.
Вид битрейта : Постоянный
Битрейт : 384 Кбит/сек
Каналы : 2 канала
Расположение каналов : Front: L R
Частота : 48,0 КГц
Битовая глубина : 16 бит
Метод сжатия : С потерями
Задержка видео : -80 мс.
Размер потока : 646 Кбайт (0%)
Меню
Общее
Полное имя : D:\Кровавый рассвет\VIDEO_TS\VTS_01_2.VOB
Формат : MPEG-PS
Размер файла : 1023 Мбайт
Продолжительность : 12 с.
Режим общего битрейта : Переменный
Общий поток : 703 Мбит/сек
Видео
Идентификатор : 224 (0xE0)
Формат : MPEG Video
Версия формата : Version 2
Профиль формата : Main@Main
Параметр BVOP формата : Да
Параметр матрицы формата : Выборочная
Параметр GOP формата : M=3, N=12
Продолжительность : 11 с.
Вид битрейта : Переменный
Битрейт : 688 Мбит/сек
Максимальный битрейт : 9282 Кбит/сек
Ширина : 720 пикселей
Высота : 576 пикселей
Соотношение сторон : 4:3
Частота кадров : 25,000 кадров/сек
Стандарт вещания : PAL
Цветовое пространство : YUV
Субдискретизация насыщенности : 4:2:0
Битовая глубина : 8 бит
Тип развёртки : Чересстрочная
Порядок развёртки : Верхнее поле первое
Метод сжатия : С потерями
Бит/(Пиксели*Кадры) : 66.394
Временной код первого кадра : 00:30:35:13
Оригинал временного кода : Group of pictures header
Размер потока : 972 Мбайт (95%)
Основные цвета : BT.601 PAL
Характеристики трансфера : BT.470 System B, BT.470 System G
Коэффициенты матрицы : BT.601
Аудио
Идентификатор : 189 (0xBD)-128 (0x80)
Формат : AC-3
Формат/Информация : Audio Coding 3
Расширение режима : CM (complete main)
Параметр Endianness формата : Big
Режим смешивания : DVD-Video
Продолжительность : 12 с.
Вид битрейта : Постоянный
Битрейт : 384 Кбит/сек
Каналы : 2 канала
Расположение каналов : Front: L R
Частота : 48,0 КГц
Битовая глубина : 16 бит
Метод сжатия : С потерями
Задержка видео : -384 мс.
Размер потока : 573 Кбайт (0%)
Меню
Общее
Полное имя : D:\Кровавый рассвет\VIDEO_TS\VTS_01_3.VOB
Формат : MPEG-PS
Размер файла : 630 Мбайт
Продолжительность : 18 м.
Режим общего битрейта : Переменный
Общий поток : 4701 Кбит/сек
Видео
Идентификатор : 224 (0xE0)
Формат : MPEG Video
Версия формата : Version 2
Профиль формата : Main@Main
Параметр BVOP формата : Да
Параметр матрицы формата : Выборочная
Параметр GOP формата : M=3, N=12
Продолжительность : 18 м.
Вид битрейта : Переменный
Битрейт : 4223 Кбит/сек
Максимальный битрейт : 9282 Кбит/сек
Ширина : 720 пикселей
Высота : 576 пикселей
Соотношение сторон : 4:3
Частота кадров : 25,000 кадров/сек
Стандарт вещания : PAL
Цветовое пространство : YUV
Субдискретизация насыщенности : 4:2:0
Битовая глубина : 8 бит
Тип развёртки : Чересстрочная
Порядок развёртки : Верхнее поле первое
Метод сжатия : С потерями
Бит/(Пиксели*Кадры) : 0.407
Временной код первого кадра : 01:01:00:12
Оригинал временного кода : Group of pictures header
Размер потока : 566 Мбайт (90%)
Основные цвета : BT.601 PAL
Характеристики трансфера : BT.470 System B, BT.470 System G
Коэффициенты матрицы : BT.601
Аудио
Идентификатор : 189 (0xBD)-128 (0x80)
Формат : AC-3
Формат/Информация : Audio Coding 3
Расширение режима : CM (complete main)
Параметр Endianness формата : Big
Режим смешивания : DVD-Video
Продолжительность : 18 м.
Вид битрейта : Постоянный
Битрейт : 384 Кбит/сек
Каналы : 2 канала
Расположение каналов : Front: L R
Частота : 48,0 КГц
Битовая глубина : 16 бит
Метод сжатия : С потерями
Задержка видео : -432 мс.
Размер потока : 51,5 Мбайт (8%)
Меню
Общее
Полное имя : D:\Кровавый рассвет\Кровавый рассвет.torrent
Размер файла : 13,9 Кбайт

Скриншоты меню

Скриншоты

[Профиль] [ЛС]
Кто просматривает тему:

Форум Тема Автор Размер
Action Hitman: Blood Money | Hitman. Кровавые деньги (2006) [L] [ENG | ENG] (1.2) TorrentFilm 4.19 GB
National Geographic NG: Исследователь 2.0: Кровавые древности / Explorer. Blood Antiquities [сезон 08 эпизод 10] (Tony Gerber) [2016 г., Документальный, HDTVRip 720p] skorpionN 1.43 GB
National Geographic NG: Кровавые Сказки Европы / Bloody Tales of Europe [сезон 2 серии 1-6 из 6] (Люк Маклаглин) [2013 г., Документально-постановочный, история, расследование, HDTVRip] skorpionN 3.58 GB
Action ShellShock 2: Blood Trails / Shellshock 2: Кровавый след [L] [RUS / RUS] (2009) TorrentFilm 4.32 GB
Action ShellShock 2: Blood Trails / ShellShock 2: Кровавый след [RePack] [RUS / RUS] (2009) (1.0) reversefile 3.33 GB
Viasat History Viasat History: Кровавые династии Британии. Плантагенеты / Britain's Bloodiest Dynasty. The Plantagenets [серии 1-4 из 4] (Oliver Twinch, James Tovell) [2014 г., Документально-постановоч... skorpionN 2.94 GB
Разная литература Вершинин Лев - Преступная история США. Статуя кровавой свободы (2016) FB2 достали все 1 MB
Фильмы 2011 года Кровавая бездна / Sangue negli abissi (1990) DVDRip | A sergej644 1.44 GB
Показать сообщения:    

Текущее время: Сегодня 00:18

Часовой пояс: GMT



Вы не можете начинать темы
Вы не можете отвечать на сообщения
Вы не можете редактировать свои сообщения
Вы не можете удалять свои сообщения
Вы не можете голосовать в опросах
Вы не можете прикреплять файлы к сообщениям
Вы не можете скачивать файлы