Кровавый заповедник / Шкура / Pelt (Ричард Суинделл / Richard Swindell) [2010, США, Ужасы, комедия, DVDRip] DVO (НТВ+) + Original Eng

 
Автор Сообщение

TorrentFilm ®

Пол:

Стаж: 2 года

Сообщений: 7741



Награды: Нет

Торрент-статистика

Создавать темы 21-Янв-2015 00:00

[Цитировать]

Кровавый заповедник / Шкура / Pelt
Страна: США
Жанр: Ужасы, комедия
Год выпуска: 2010
Продолжительность: 01:28:06
Перевод: Профессиональный (двухголосый закадровый) Кинолюкс
Cубтитры: нет
Оригинальная аудиодорожка: английский
Режиссер: Ричард Суинделл / Richard Swindell
В ролях: Джастин Велборн, Эшли Уоткинс, Трэвис Гудман, Мэттью Робинсон, Эмбер Боллинджер, Райан Бун, Шон Уильямсон, Ларри Лалиберт, Терил Шварц
Описание: Девушки с приятелями отправляются на уик-энд в горы. Один из туристов знает маршрут и ведет группу на опасный и красивый перевал. Всем хочется отдохнуть и развлечься. Но никто из группы не подозревает, как закончится эта поездка.
Сэмпл: http://multi-up.com/1027822
Качество видео: DVDRip
Формат видео: AVI
Видео: MPEG4, XviD, 720x400 (16/9), 23.976 fps, 1 665 Kbps (0.241 bit/pixel)
Аудио: AC-3, 48.0 KHz, 6 ch, 384 Kbps, CBR - русский
Аудио 2: AC-3, 48.0 KHz, 6 ch, 384 Kbps, CBR - английский

MediaInfo

Общее
Полное имя : K:\Шкура.avi
Формат : AVI
Формат/Информация : Audio Video Interleave
Размер файла : 1,50 Гбайт
Продолжительность : 1 ч. 28 м.
Общий поток : 2438 Кбит/сек
Название фильма : Кровавый заповедник / Шкура / Pelt (2010)
Программа кодирования : VirtualDubMod 1.5.10.2 (build 2540/release)
Библиотека кодирования : VirtualDubMod build 2540/release
Видео
Идентификатор : 0
Формат : MPEG-4 Visual
Профиль формата : Advanced Simple@L5
Параметр BVOP формата : 2
Параметр QPel формата : Да
Параметр GMC формата : Без точки перехода
Параметр матрицы формата : Default (MPEG)
Идентификатор кодека : XVID
Идентификатор кодека/Подсказка : XviD
Продолжительность : 1 ч. 28 м.
Битрейт : 1665 Кбит/сек
Ширина : 720 пикселей
Высота : 400 пикселей
Соотношение сторон : 16:9
Частота кадров : 23,976 кадра/сек
Цветовое пространство : YUV
Субдискретизация насыщенности : 4:2:0
Битовая глубина : 8 бит
Тип развёртки : Прогрессивная
Метод сжатия : С потерями
Бит/(Пиксели*Кадры) : 0.241
Размер потока : 1,02 Гбайт (68%)
Библиотека кодирования : XviD 1.2.1 (UTC 2008-12-04)
Аудио #1
Идентификатор : 1
Формат : AC-3
Формат/Информация : Audio Coding 3
Расширение режима : CM (complete main)
Параметр Endianness формата : Big
Идентификатор кодека : 2000
Продолжительность : 1 ч. 27 м.
Вид битрейта : Постоянный
Битрейт : 384 Кбит/сек
Каналы : 6 каналов
Расположение каналов : Front: L C R, Side: L R, LFE
Частота : 48,0 КГц
Битовая глубина : 16 бит
Метод сжатия : С потерями
Размер потока : 239 Мбайт (16%)
Выравнивание : Разделение по промежуткам
Продолжительность промежутка : 42 мс. (1,01 видеокадр)
Время предзагрузки промежутка : 500 мс.
Заголовок : Профессиональный (многоголосый закадровый) Кинолюкс
Аудио #2
Идентификатор : 2
Формат : AC-3
Формат/Информация : Audio Coding 3
Расширение режима : CM (complete main)
Параметр Endianness формата : Big
Идентификатор кодека : 2000
Продолжительность : 1 ч. 27 м.
Вид битрейта : Постоянный
Битрейт : 384 Кбит/сек
Каналы : 6 каналов
Расположение каналов : Front: L C R, Side: L R, LFE
Частота : 48,0 КГц
Битовая глубина : 16 бит
Метод сжатия : С потерями
Размер потока : 239 Мбайт (16%)
Выравнивание : Разделение по промежуткам
Продолжительность промежутка : 42 мс. (1,01 видеокадр)
Время предзагрузки промежутка : 500 мс.
Заголовок : Английский

Скриншоты

[Профиль] [ЛС]

Создавать темы 06-Авг-2015 22:47 (спустя 6 месяцев 16 дней)

Топик был перенесен из форума Фильмы до 2014 года в форум Фильмы до 2012 года
sergej644
 

Создавать темы 12-Июн-2016 07:54 (спустя 1 год 4 месяца)

Топик был перенесен из форума Фильмы 2011 года в форум Фильмы 2010 года
Russian Mafia
 
Кто просматривает тему:

Форум Тема Автор Размер
Action Hitman: Blood Money | Hitman. Кровавые деньги (2006) [L] [ENG | ENG] (1.2) TorrentFilm 4.19 GB
National Geographic NG: Исследователь 2.0: Кровавые древности / Explorer. Blood Antiquities [сезон 08 эпизод 10] (Tony Gerber) [2016 г., Документальный, HDTVRip 720p] skorpionN 1.43 GB
National Geographic NG: Кровавые Сказки Европы / Bloody Tales of Europe [сезон 2 серии 1-6 из 6] (Люк Маклаглин) [2013 г., Документально-постановочный, история, расследование, HDTVRip] skorpionN 3.58 GB
Action ShellShock 2: Blood Trails / Shellshock 2: Кровавый след [L] [RUS / RUS] (2009) TorrentFilm 4.32 GB
Action ShellShock 2: Blood Trails / ShellShock 2: Кровавый след [RePack] [RUS / RUS] (2009) (1.0) reversefile 3.33 GB
Viasat History Viasat History: Кровавые династии Британии. Плантагенеты / Britain's Bloodiest Dynasty. The Plantagenets [серии 1-4 из 4] (Oliver Twinch, James Tovell) [2014 г., Документально-постановоч... skorpionN 2.94 GB
Разная литература Вершинин Лев - Преступная история США. Статуя кровавой свободы (2016) FB2 достали все 1 MB
Фильмы 2011 года Кровавая бездна / Sangue negli abissi (1990) DVDRip | A sergej644 1.44 GB
Показать сообщения:    

Текущее время: Сегодня 02:17

Часовой пояс: GMT



Вы не можете начинать темы
Вы не можете отвечать на сообщения
Вы не можете редактировать свои сообщения
Вы не можете удалять свои сообщения
Вы не можете голосовать в опросах
Вы не можете прикреплять файлы к сообщениям
Вы не можете скачивать файлы