Кровавый алмаз / Blood Diamond (Эдвард Цвик / Edward Zwick) [2006, США, Германия, триллер, драма, приключения, BDRip-AVC] VO (kyberpunk) + AVO (Рябов)

 
Автор Сообщение

painkiller ®

Стаж: 2 года 3 месяца

Сообщений: 582



Награды: Нет

Торрент-статистика

Создавать темы 18-Авг-2014 01:01

[Цитировать]

Кровавый алмаз / Blood Diamond Страна: США, Германия
Жанр: триллер, драма, приключения
Год выпуска: 2006
Продолжительность: 02:23:21
Перевод 1: Одноголосый закадровый Михаил Яроцкий (kyberpunk) (ненормативная лексика)
Перевод 2: Авторский одноголосый - Рябов
Cубтитры: нет
Режиссер: Эдвард Цвик / Edward Zwick-В ролях: Леонардо ДиКаприо, Джимон Хонсу, Дженнифер Коннелли, Caruso Kuypers, Арнольд Вослоу, Энтони Коулмэн, Benu Mabhena, Anointing Lukola, Дэвид Хэрвуд, Бейзил Уоллес
Описание: 1999, Сьерра-Леоне. Гражданская война. Кровь и хаос. В этой безрадостной атмосфере орудует ловкий контрабандист, специальность которого - бриллианты. Ему нет особенного дела, что эти камешки используются для дальнейшего нагнетания межнациональной розни.
Но однажды контрабандист встречает местного фермера, у которого пропал сын - его, говорят, забрали в «детскую армию», используемую на фронтах гражданской войны. И два разных человека образуют противоестественную коалицию…-
Рейтинг R - Детям до 17 лет обязательно присутствие родителей!-Доп.информация: спонсор перевода М.Яроцкого - будулайроманов. Работа со звуком — Perevodman.
-Качество видео: BDRip-AVC
Формат видео: MKV
Видео: 924x382, (2,40:1), 23,976 fps, AVC, ~1871 Kbps
Аудио: 48 kHz, AC3 Dolby Digital, 3/2 (L,C,R) + L R, LFE ch, 448 kbps Михаил Яроцкий
Аудио: 48 kHz, AC3 Dolby Digital, 3/2 (L,C,R) + L R, LFE ch, 448 kbps Рябов

MediaInfo

General
Unique ID : 221875787383733222292328394456597939478 (0xA6EBB8E7B6E9C6C694764A2C858A4516)
Format : Matroska
Format version : Version 1
File size : 2.78 GiB
Duration : 2h 23mn
Overall bit rate : 2 771 Kbps
Movie name : Релиз Переулка Переводмана
Encoded date : UTC 2014-03-30 11:41:27
Writing application : mkvmerge v2.1.0 ('Another Place To Fall') built on Aug 19 2007 13:40:07
Writing library : libebml v0.7.7 + libmatroska v0.8.1
Attachment : Blood_Diamond_Kyberpunk.jpg
Video #1
ID : 1
Format : AVC
Format/Info : Advanced Video Codec
Format profile : High@L4.1
Format settings, CABAC : Yes
Format settings, ReFrames : 15 frames
Codec ID : V_MPEG4/ISO/AVC
Duration : 2h 23mn
Bit rate : 1 872 Kbps
Width : 924 pixels
Height : 382 pixels
Display aspect ratio : 2.40:1
Frame rate mode : Constant
Frame rate : 23.976 fps
Color space : YUV
Chroma subsampling : 4:2:0
Bit depth : 8 bits
Scan type : Progressive
Bits/(Pixel*Frame) : 0.221
Stream size : 1.82 GiB (66%)
Title : x264
Writing library : x264 core 140 r2377 1ca7bb9
Encoding settings : cabac=1 / ref=15 / deblock=1:-2:-2 / analyse=0x3:0x113 / me=umh / subme=11 / psy=1 / psy_rd=0.80:0.15 / mixed_ref=1 / me_range=24 / chroma_me=1 / trellis=2 / 8x8dct=1 / cqm=0 / deadzone=21,11 / fast_pskip=0 / chroma_qp_offset=-3 / threads=12 / lookahead_threads=2 / sliced_threads=0 / nr=0 / decimate=0 / interlaced=0 / bluray_compat=0 / constrained_intra=0 / bframes=7 / b_pyramid=2 / b_adapt=2 / b_bias=0 / direct=3 / weightb=1 / open_gop=0 / weightp=2 / keyint=250 / keyint_min=23 / scenecut=40 / intra_refresh=0 / rc_lookahead=60 / rc=2pass / mbtree=1 / bitrate=1872 / ratetol=1.0 / qcomp=0.70 / qpmin=0 / qpmax=41 / qpstep=4 / cplxblur=20.0 / qblur=0.5 / vbv_maxrate=50000 / vbv_bufsize=62500 / nal_hrd=none / filler=0 / ip_ratio=1.30 / aq=1:0.80
Language : English
Default : Yes
Forced : No
Color primaries : BT.709
Transfer characteristics : BT.709
Matrix coefficients : BT.709
Audio #2
ID : 2
Format : AC-3
Format/Info : Audio Coding 3
Mode extension : CM (complete main)
Format settings, Endianness : Big
Codec ID : A_AC3
Duration : 2h 23mn
Bit rate mode : Constant
Bit rate : 448 Kbps
Channel(s) : 6 channels
Channel positions : Front: L C R, Side: L R, LFE
Sampling rate : 48.0 KHz
Bit depth : 16 bits
Compression mode : Lossy
Stream size : 459 MiB (16%)
Title : AVO Kyberpunk
Language : Russian
Default : Yes
Forced : No
Audio #3
ID : 3
Format : AC-3
Format/Info : Audio Coding 3
Mode extension : CM (complete main)
Format settings, Endianness : Big
Codec ID : A_AC3
Duration : 2h 23mn
Bit rate mode : Constant
Bit rate : 448 Kbps
Channel(s) : 6 channels
Channel positions : Front: L C R, Side: L R, LFE
Sampling rate : 48.0 KHz
Bit depth : 16 bits
Compression mode : Lossy
Stream size : 459 MiB (16%)
Title : AVO Рябов
Language : Russian
Default : No
Forced : No

Скриншоты

[Профиль] [ЛС]

Создавать темы 06-Авг-2015 23:09 (спустя 11 месяцев 19 дней)

Топик был перенесен из форума Фильмы до 2014 года в форум Фильмы до 2012 года
sergej644
 
Кто просматривает тему:

Форум Тема Автор Размер
Action Hitman: Blood Money | Hitman. Кровавые деньги (2006) [L] [ENG | ENG] (1.2) TorrentFilm 4.19 GB
National Geographic NG: Исследователь 2.0: Кровавые древности / Explorer. Blood Antiquities [сезон 08 эпизод 10] (Tony Gerber) [2016 г., Документальный, HDTVRip 720p] skorpionN 1.43 GB
National Geographic NG: Кровавые Сказки Европы / Bloody Tales of Europe [сезон 2 серии 1-6 из 6] (Люк Маклаглин) [2013 г., Документально-постановочный, история, расследование, HDTVRip] skorpionN 3.58 GB
Action ShellShock 2: Blood Trails / Shellshock 2: Кровавый след [L] [RUS / RUS] (2009) TorrentFilm 4.32 GB
Action ShellShock 2: Blood Trails / ShellShock 2: Кровавый след [RePack] [RUS / RUS] (2009) (1.0) reversefile 3.33 GB
Viasat History Viasat History: Кровавые династии Британии. Плантагенеты / Britain's Bloodiest Dynasty. The Plantagenets [серии 1-4 из 4] (Oliver Twinch, James Tovell) [2014 г., Документально-постановоч... skorpionN 2.94 GB
Разная литература Вершинин Лев - Преступная история США. Статуя кровавой свободы (2016) FB2 достали все 1 MB
Фильмы 2011 года Кровавая бездна / Sangue negli abissi (1990) DVDRip | A sergej644 1.44 GB
Показать сообщения:    

Текущее время: Сегодня 11:53

Часовой пояс: GMT



Вы не можете начинать темы
Вы не можете отвечать на сообщения
Вы не можете редактировать свои сообщения
Вы не можете удалять свои сообщения
Вы не можете голосовать в опросах
Вы не можете прикреплять файлы к сообщениям
Вы не можете скачивать файлы