Кровавый алмаз / Blood Diamond (Эдвард Цвик / Edward Zwick) [2006, США, Триллер, драма, приключения, BDRip] Dub

 
Автор Сообщение

reversefile ®

Пол:

Стаж: 4 года 5 месяцев

Сообщений: 842

Откуда: ReverseFile.org



Награды: Нет

Торрент-статистика

Создавать темы 13-Авг-2014 10:04

[Цитировать]

Кровавый алмаз / Blood Diamond
«Ценою в целую жизнь»
- Год выпуска: 2006
Выпущено: США, Германия / Warner Bros. Pictures
Жанр: триллер, драма, приключения
Продолжительность: 02:23:21
Перевод: Профессиональный (полное дублирование) BD CEE
Cубтитры: нет-Режиссер:
Эдвард Цвик / Edward Zwick-В ролях:
Леонардо ДиКаприо (Danny Archer), Джимон Хонсу (Solomon Vandy), Дженнифер Коннелли (Maddy Bowen), Арнольд Вослу (Colonel Coetzee), Майкл Шин (Rupert Simmons), Карузо Кеперс (Dia Vandy), Дэвид Хэрвуд (Captain Poison), Бейзил Уоллес (Benjamin Kapanay), Джими Мистри (Nabil)-Описание:
1999, Сьерра-Леоне. Гражданская война. Кровь и хаос. В этой безрадостной атмосфере орудует ловкий контрабандист, специальность которого — бриллианты. Ему нет особенного дела, что эти камешки используются для дальнейшего нагнетания межнациональной розни.
Но однажды контрабандист встречает местного рыбака, у которого пропал сын — его, говорят, забрали в «детскую армию», используемую на фронтах гражданской войны. И два разных человека образуют противоестественную коалицию…-IMDB | КиноПоиск | Сэмпл |-Качество: BDRip [BDRemux / Кинозал]
Формат: AVI
Видео: 704x288 (2.44:1), 23.976 fps, XviD build 73 ~1255 kbps avg, 0.26 bit/pixel
Аудио: 48 kHz, AC3 Dolby Digital, 2/0 (L,R) ch, ~192.00 kbps avg
-

Скриншоты

MediaInfo

General
Complete name                            : D:\Krovavyi_almaz_2006_BDRip_by_Dalemake.avi
Format                                   : AVI
Format/Info                              : Audio Video Interleave
File size                                : 1.46 GiB
Duration                                 : 2h 23mn
Overall bit rate                         : 1 457 Kbps
Writing application                      : VirtualDubMod 1.5.10.3 | www.virtualdub-fr.org || (build 2550/release)
Writing library                          : VirtualDubMod build 2550/release
Video
ID                                       : 0
Format                                   : MPEG-4 Visual
Format profile                           : Advanced Simple@L5
Format settings, BVOP                    : 1
Format settings, QPel                    : No
Format settings, GMC                     : No warppoints
Format settings, Matrix                  : Custom
Codec ID                                 : XVID
Codec ID/Hint                            : XviD
Duration                                 : 2h 23mn
Bit rate                                 : 1 256 Kbps
Width                                    : 704 pixels
Height                                   : 288 pixels
Display aspect ratio                     : 2.40:1
Frame rate                               : 23.976 fps
Color space                              : YUV
Chroma subsampling                       : 4:2:0
Bit depth                                : 8 bits
Scan type                                : Progressive
Compression mode                         : Lossy
Bits/(Pixel*Frame)                       : 0.258
Stream size                              : 1.26 GiB (86%)
Writing library                          : XviD 73
Audio
ID                                       : 1
Format                                   : AC-3
Format/Info                              : Audio Coding 3
Mode extension                           : CM (complete main)
Format settings, Endianness              : Big
Codec ID                                 : 2000
Duration                                 : 2h 23mn
Bit rate mode                            : Constant
Bit rate                                 : 192 Kbps
Channel(s)                               : 2 channels
Channel positions                        : Front: L R
Sampling rate                            : 48.0 KHz
Bit depth                                : 16 bits
Compression mode                         : Lossy
Stream size                              : 197 MiB (13%)
Alignment                                : Split accross interleaves
Interleave, duration                     : 42 ms (1.00 video frame)
Interleave, preload duration             : 500 ms
-
[Профиль] [ЛС]

Создавать темы 06-Авг-2015 23:19 (спустя 11 месяцев 24 дня)

Топик был перенесен из форума Фильмы до 2014 года в форум Фильмы до 2012 года
sergej644
 
Кто просматривает тему:

Форум Тема Автор Размер
Action Hitman: Blood Money | Hitman. Кровавые деньги (2006) [L] [ENG | ENG] (1.2) TorrentFilm 4.19 GB
National Geographic NG: Исследователь 2.0: Кровавые древности / Explorer. Blood Antiquities [сезон 08 эпизод 10] (Tony Gerber) [2016 г., Документальный, HDTVRip 720p] skorpionN 1.43 GB
National Geographic NG: Кровавые Сказки Европы / Bloody Tales of Europe [сезон 2 серии 1-6 из 6] (Люк Маклаглин) [2013 г., Документально-постановочный, история, расследование, HDTVRip] skorpionN 3.58 GB
Action ShellShock 2: Blood Trails / Shellshock 2: Кровавый след [L] [RUS / RUS] (2009) TorrentFilm 4.32 GB
Action ShellShock 2: Blood Trails / ShellShock 2: Кровавый след [RePack] [RUS / RUS] (2009) (1.0) reversefile 3.33 GB
Viasat History Viasat History: Кровавые династии Британии. Плантагенеты / Britain's Bloodiest Dynasty. The Plantagenets [серии 1-4 из 4] (Oliver Twinch, James Tovell) [2014 г., Документально-постановоч... skorpionN 2.94 GB
Разная литература Вершинин Лев - Преступная история США. Статуя кровавой свободы (2016) FB2 достали все 1 MB
Фильмы 2011 года Кровавая бездна / Sangue negli abissi (1990) DVDRip | A sergej644 1.44 GB
Показать сообщения:    

Текущее время: Сегодня 01:10

Часовой пояс: GMT



Вы не можете начинать темы
Вы не можете отвечать на сообщения
Вы не можете редактировать свои сообщения
Вы не можете удалять свои сообщения
Вы не можете голосовать в опросах
Вы не можете прикреплять файлы к сообщениям
Вы не можете скачивать файлы