Кровавая вдова / Blood Widow (Джерами Бэкхелт / Jeremiah Buckhalt) [2014, США, ужасы, HDRip] VO (R.A.I.M)

 
Автор Сообщение

Создавать темы 13-Июл-2014 16:36

Кровавая вдова / Blood Widow
Страна: США
Жанр: ужасы
Год выпуска: 2014
Продолжительность: 01:22:47
Перевод: Одноголосый закадровый R.A.I.M
Cубтитры: нет
Оригинальная аудиодорожка: нет
Режиссер: Джерами Бэкхелт / Jeremiah Buckhalt
В ролях: Даниэль Лиллей, Брендон Кайл Перерс, Кристофер де Падуа, Хосе Васкес, Кейли Килгор, Эмили Каттинг, Филип Маруновскийi, Габриэль Энн Хенли
Описание: После покупки дома в пригороде, успешная молодая пара, Лори и Хью, устраивают вечеринку для своих друзей. Ночью, во время вечеринки, несколько друзей решают осмотреть заброшенную школу, расположенную по соседству…
Сэмпл: http://multi-up.com/982185
Качество видео: HDRip (исходник не известен)
Формат видео: AVI
Видео: Xvid 640x352 23.98fps 1 041 Kbps
Аудио: Dolby AC3 48000Hz stereo 192kbps

MediaInfo

Format : AVI
Format/Info : Audio Video Interleave
File size : 736 MiB
Duration : 1h 22mn
Overall bit rate : 1 242 Kbps
Writing application : VirtualDubMod 1.5.10.2 (build 2540/release)
Writing library : VirtualDubMod build 2540/release
Video
ID : 0
Format : MPEG-4 Visual
Format profile : Advanced Simple@L5
Format settings, BVOP : Yes
Format settings, QPel : No
Format settings, GMC : No warppoints
Format settings, Matrix : Default (H.263)
Muxing mode : Packed bitstream
Codec ID : XVID
Codec ID/Hint : XviD
Duration : 1h 22mn
Bit rate : 1 041 Kbps
Width : 640 pixels
Height : 352 pixels
Display aspect ratio : 16:9
Frame rate : 23.976 fps
Resolution : 8 bits
Colorimetry : 4:2:0
Scan type : Progressive
Bits/(Pixel*Frame) : 0.193
Stream size : 616 MiB (84%)
Writing library : XviD 65
Audio
ID : 1
Format : AC-3
Format/Info : Audio Coding 3
Codec ID : 2000
Duration : 1h 22mn
Bit rate mode : Constant
Bit rate : 192 Kbps
Channel(s) : 2 channels
Channel positions : L R
Sampling rate : 48.0 KHz
Stream size : 114 MiB (15%)
Alignment : Split accross interleaves
Interleave, duration : 42 ms (1.00 video frame)
Interleave, preload duration : 500 ms

Скриншот c названием фильма

Скриншоты

 
Кто просматривает тему:

Форум Тема Автор Размер
National Geographic NG: Исследователь 2.0: Кровавые древности / Explorer. Blood Antiquities [сезон 08 эпизод 10] (Tony Gerber) [2016 г., Документальный, HDTVRip 720p] skorpionN 1.43 GB
National Geographic NG: Кровавые Сказки Европы / Bloody Tales of Europe [сезон 2 серии 1-6 из 6] (Люк Маклаглин) [2013 г., Документально-постановочный, история, расследование, HDTVRip] skorpionN 3.58 GB
Viasat History Viasat History: Кровавые династии Британии. Плантагенеты / Britain's Bloodiest Dynasty. The Plantagenets [серии 1-4 из 4] (Oliver Twinch, James Tovell) [2014 г., Документально-постановоч... skorpionN 2.94 GB
Разная литература Вершинин Лев - Преступная история США. Статуя кровавой свободы (2016) FB2 достали все 1 MB
Фильмы 2011 года Кровавая бездна / Sangue negli abissi (1990) DVDRip | A sergej644 1.44 GB
Фильмы (DVD 5/9) Кровавая битва за сокровище / Blooded Treasury Fight (1979) DVD5 | Custom | L1 sergej644 4.24 GB
Фильмы 2014 года Кровавая вдова / Blood Widow (2014) HDRip | L1 BOSS 1.38 GB
Фильмы (HD Rips | 720p, 1080p) Кровавая леди Батори / Lady of Csejte (2015) WEB-DL 1080p sergej644 5.18 GB
Показать сообщения:    

Текущее время: Сегодня 17:02

Часовой пояс: GMT



Вы не можете начинать темы
Вы не можете отвечать на сообщения
Вы не можете редактировать свои сообщения
Вы не можете удалять свои сообщения
Вы не можете голосовать в опросах
Вы не можете прикреплять файлы к сообщениям
Вы не можете скачивать файлы